Миллион – не деньги / Ограбь банк, и тебе ничего не будет / Pour cent briques t'as plus rien (Эдуар Молинаро / Édouard Molinaro) [1982, Франция, криминальная комедия, DVDRip] MVO

Reply to topic
DL-List and Torrent activity
Size:  751 MB   |    Registered:  3 years 1 month   |    Completed:  16 times

Seeder not seen: Never

 
   
 
 
Author Message

erzsebet.org ®

Longevity: 3 years 1 month

Posts: 47596

Post 02-Dec-2017 16:54

[Quote]

Миллион – не деньги / Ограбь банк, и тебе ничего не будет / Pour cent briques t'as plus rien
Страна: Франция
Жанр: криминальная комедия
Год выпуска: 1982
Продолжительность: 01:20:09
Перевод: Профессиональный (многоголосый закадровый)
Субтитры: отсутствуют
Режиссёр: Эдуар Молинаро / Édouard Molinaro
В ролях: Даниель Отой, Жерар Жюньо, Анемон, Жан-Пьер Кастальди, Франсуа Перро, Поль Барж, Анник Бланшто, Элиза Сервье, Эрик Легран, Дарри Коул, и др.
Описание (с КиноПоиска): Безработица толкнула двух друзей на крайние меры: ограбление банка. Просмотрев, как инструкцию, несколько гангстерских фильмов и купив оружие, они отправляются в банк. Эта история закончилась бы провалом, если бы не неожиданная помощь заложников, управляющего и даже инспектора полиции…
Доп. информация: Звук взят из раздачи http://erzsebet.org/forum/viewtopic.php?t=297814 и перекодирован в MP3.

Качество видео: DVDRip
Формат видео: AVI
Video: 656x400 (1.64:1), 25 fps, XviD build 73 ~1171 kbps avg, 0.18 bit/pixel
Audio: 48 kHz, MPEG Layer 3, 2 ch, ~128.00 kbps avg

AviInfo

File: Pour_cent_briques_t'as_plus_rien_1982_DVDRip_[erzsebet.org].avi
Title: Pour_cent_briques_t'as_plus_rien_1982_DVDRip_[erzsebet.org]
Author: OGORODNIKOFFF
Copyleft: http://erzsebet.org/forum/profile.php?mode=viewprofile&u=38116300
Genre: Криминальная комедия
Category: Фильмы до 1990 года
Comment: Рип подготовлен 30 октября 2017 года
Filesize: 750.74 Mb ( 787 208 192 bytes )
Play length: 01:20:09.160 (120229 frames)
Subtitles: Not Present
Video: 656x400 (1.64:1), 25 fps, XviD build 73 ~1171 kbps avg, 0.18 bit/pixel
Audio: 48 kHz, MPEG Layer 3, 2 ch, ~128.00 kbps avg

MediaInfo

Общее
Полное имя : D:\Pour_cent_briques_t'as_plus_rien_1982_DVDRip_[erzsebet.org].avi
Формат : AVI
Формат/Информация : Audio Video Interleave
Размер файла : 751 Мбайт
Продолжительность : 1 ч. 20 м.
Общий поток : 1310 Кбит/сек
Название фильма : Pour_cent_briques_t'as_plus_rien_1982_DVDRip_[erzsebet.org]
Режиссёр : OGORODNIKOFFF
Жанр : Криминальная комедия
Программа кодирования : VirtualDubModRus 1.5.10.2 (build 2542/release)
Формат оригинала/Имя : Фильмы до 1990 года
Авторское право : http://erzsebet.org/forum/profile.php?mode=viewprofile&u=38116300
Примечание : Рип подготовлен 30 октября 2017 года
Видео
Идентификатор : 0
Формат : MPEG-4 Visual
Профиль формата : Advanced [email protected]
Настройки формата : BVOP2 / Custom Matrix
Параметр BVOP формата : 2
Параметр QPel формата : Нет
Параметр GMC формата : Без точки перехода
Параметр матрицы формата : Выборочная
Идентификатор кодека : DX50
Идентификатор кодека/Подсказка : DivX 5
Продолжительность : 1 ч. 20 м.
Битрейт : 1172 Кбит/сек
Ширина : 656 пикселей
Высота : 400 пикселей
Соотношение сторон : 16:10
Частота кадров : 25,000 кадров/сек
Цветовое пространство : YUV
Субдискретизация насыщенности : 4:2:0
Битовая глубина : 8 бит
Тип развёртки : Прогрессивная
Метод сжатия : С потерями
Бит/(Пиксели*Кадры) : 0.179
Размер потока : 672 Мбайт (89%)
Библиотека кодирования : XviD 73
Аудио
Идентификатор : 1
Формат : MPEG Audio
Версия формата : Version 1
Профиль формата : Layer 3
Настройки формата : Joint stereo / MS Stereo
Режим : Joint stereo
Расширение режима : MS Stereo
Идентификатор кодека : 55
Идентификатор кодека/Подсказка : MP3
Продолжительность : 1 ч. 20 м.
Вид битрейта : Постоянный
Битрейт : 128 Кбит/сек
Каналы : 2 канала
Частота : 48,0 КГц
Метод сжатия : С потерями
Размер потока : 73,4 Мбайт (10%)
Выравнивание : Соединение по промежуткам
Продолжительность промежутка : 40 мс. (1,00 видеокадр)
Время предзагрузки промежутка : 504 мс.
Библиотека кодирования : LAME3.98
Настройки программы : -m j -V 4 -q 2 -lowpass 17 -b 128

Скриншот c названием фильма

If your ratio falls below 0.3, you will not be able to download Torrents! More about the rating.

[erzsebet.pl].t564.torrent
Torrent: Registered [ 2017-12-02 16:56 ] · F19A27958D4B63A2362BCBEABF2D455587E19226

Download .torrent

Download

15 KB

Status: checked
Completed: 16 times
Size: 751 MB
terms.php
[Profile] [PM]
Display posts:    
Reply to topic

Current time is: 23-Jan 22:40

All times are UTC ± 0



You cannot post new topics in this forum
You cannot reply to topics in this forum
You cannot edit your posts in this forum
You cannot delete your posts in this forum
You cannot vote in polls in this forum
You cannot attach files in this forum
You can download files in this forum