Свидание вслепую / Знакомство вслепую / Blind Date (Блэйк Эдвардс / Blake Edwards) [1987, США, комедия, HDRip] VO (ОРБИТА) + Sub Eng, Rus + Original Eng

Reply to topic
DL-List and Torrent activity
Size:  2.1 GB   |    Registered:  3 years 1 month   |    Completed:  16 times

Seeder not seen: Never

 
   
 
 
Author Message

erzsebet.org ®

Longevity: 3 years 1 month

Posts: 47596

Post 02-Dec-2017 16:54

[Quote]

Свидание вслепую / Знакомство вслепую / Blind Date
Страна: США
Жанр: комедия
Год выпуска: 1987
Продолжительность: 1:35:14
Перевод: Одноголосый закадровый студии "ОРБИТА"
Субтитры: английские, русские
Оригинальная аудиодорожка: английский
Режиссер: Блэйк Эдвардс /Blake Edwards/
В ролях: Ким Бэйсингер /Kim Basinger/, Брюс Уиллис /Bruce Willis/, Джон Ларрокетт /John Larroquette/, Уильям Дэниэлс /William Daniels/, Фил Хартмэн /Phil Hartman/, Стефани Фэрэси /Stephanie Faracy/...
Рецензия Михаила Иванова: Знакомство вслепую - это когда идешь на свиданье с девушкой (парнем), которой (го) ранее никогда не видел. Обычно с сестрой друга или подругой подружки. Уолтера (Уиллис), идущего знакомится, предупредили, что Надя (Бэйсингер) - девушка хорошая, но не надо давать ей спиртного, а то она становится дикой. Слово "дикая" он понял так, как бы ему этого хотелось, и подогревать ее он начал шампанским. Результаты были ошеломляющими...
Доп. информация: исходник от kingsize87; перевод ОРБИТЫ оцифровал и подготовил karlll, вторая половина звучит глуше первой, но вполне разборчиво. и возможно этот последний из неизданных на треккере кассетных переводов этой комедии. примечательно, что игра на гитаре была любимым занятием героя Уиллиса, и выпуск этой раздачи невольно совпал с днём рождения Джими Хендрикса !
(предполагаю, что этот неизвестный ОРБИТЫ переводил Робина Гуда)
~Сэмпл~
Качество видео: HDRip
Формат видео: MKV
Видео: MPEG4 (H264) 1152x480 23.976fps 2776Kbps
Аудио 1: AC3 48KHz 2ch 192Kbps - ОРБИТА
Аудио 2: AC3 48KHz 2ch 192Kbps - анг
Формат субтитров: softsub (SRT)

MediaInfo

Формат : Matroska
Версия формата : Version 2
Размер файла : 2,10 Гбайт
Продолжительность : 1 ч. 35 м.
Общий поток : 3161 Кбит/сек
Дата кодирования : UTC 2017-11-27 13:15:24
Программа кодирования : mkvmerge v6.9.1 ('Blue Panther') 32bit built on Apr 18 2014 18:15:44
Библиотека кодирования : libebml v1.3.0 + libmatroska v1.4.1
Видео
Идентификатор : 1
Формат : AVC
Формат/Информация : Advanced Video Codec
Профиль формата : [email protected]
Параметр CABAC формата : Да
Параметр ReFrames формата : 7 кадров
Идентификатор кодека : V_MPEG4/ISO/AVC
Продолжительность : 1 ч. 35 м.
Битрейт : 2776 Кбит/сек
Ширина : 1152 пикселя
Высота : 480 пикселей
Соотношение сторон : 2,40:1
Режим частоты кадров : Постоянный
Частота кадров : 23,976 кадра/сек
Цветовое пространство : YUV
Субдискретизация насыщенности : 4:2:0
Битовая глубина : 8 бит
Тип развёртки : Прогрессивная
Бит/(Пиксели*Кадры) : 0.209
Размер потока : 1,81 Гбайт (86%)
Заголовок : Blind Date (1987)
Библиотека кодирования : x264 core 152 r2851kMod ba24899
Настройки программы : cabac=1 / ref=7 / deblock=1:-1:-1 / analyse=0x3:0x113 / me=umh / subme=9 / psy=1 / fade_compensate=0.00 / psy_rd=1.00:0.20 / mixed_ref=1 / me_range=24 / chroma_me=1 / trellis=2 / 8x8dct=1 / cqm=0 / deadzone=21,11 / fast_pskip=0 / chroma_qp_offset=-3 / threads=6 / lookahead_threads=1 / sliced_threads=0 / nr=0 / decimate=0 / interlaced=0 / bluray_compat=0 / constrained_intra=0 / bframes=7 / b_pyramid=2 / b_adapt=2 / b_bias=0 / direct=3 / weightb=1 / open_gop=0 / weightp=2 / keyint=250 / keyint_min=23 / scenecut=40 / intra_refresh=0 / rc_lookahead=50 / rc=2pass / mbtree=1 / bitrate=2776 / ratetol=1.0 / qcomp=0.60 / qpmin=0 / qpmax=69 / qpstep=4 / cplxblur=20.0 / qblur=0.5 / vbv_maxrate=14000 / vbv_bufsize=14000 / nal_hrd=none / filler=0 / ip_ratio=1.40 / aq=1:1.00
Язык : English
Default : Да
Forced : Нет
Аудио #1
Идентификатор : 2
Формат : AC-3
Формат/Информация : Audio Coding 3
Расширение режима : CM (complete main)
Параметр Endianness формата : Big
Идентификатор кодека : A_AC3
Продолжительность : 1 ч. 35 м.
Вид битрейта : Постоянный
Битрейт : 192 Кбит/сек
Каналы : 2 канала
Расположение каналов : Front: L R
Частота : 48,0 КГц
Битовая глубина : 16 бит
Метод сжатия : С потерями
Размер потока : 131 Мбайт (6%)
Заголовок : студия "ОРБИТА"
Язык : Russian
Default : Да
Forced : Нет
Аудио #2
Идентификатор : 3
Формат : AC-3
Формат/Информация : Audio Coding 3
Расширение режима : CM (complete main)
Параметр Endianness формата : Big
Идентификатор кодека : A_AC3
Продолжительность : 1 ч. 35 м.
Вид битрейта : Постоянный
Битрейт : 192 Кбит/сек
Каналы : 2 канала
Расположение каналов : Front: L R
Частота : 48,0 КГц
Битовая глубина : 16 бит
Метод сжатия : С потерями
Размер потока : 131 Мбайт (6%)
Заголовок : english
Язык : English
Default : Нет
Forced : Нет
Текст #1
Идентификатор : 4
Формат : UTF-8
Идентификатор кодека : S_TEXT/UTF8
Идентификатор кодека/Информация : UTF-8 Plain Text
Заголовок : english
Язык : English
Default : Нет
Forced : Нет
Текст #2
Идентификатор : 5
Формат : UTF-8
Идентификатор кодека : S_TEXT/UTF8
Идентификатор кодека/Информация : UTF-8 Plain Text
Заголовок : русские
Язык : Russian
Default : Нет
Forced : Нет
Меню
00:00:00.000 : en:00:00:00.000
00:05:28.703 : en:00:05:28.703
00:10:19.953 : en:00:10:19.953
00:13:53.624 : en:00:13:53.624
00:18:20.349 : en:00:18:20.349
00:23:03.632 : en:00:23:03.632
00:27:42.369 : en:00:27:42.369
00:32:51.344 : en:00:32:51.344
00:37:31.291 : en:00:37:31.291
00:44:16.070 : en:00:44:16.070
00:51:33.007 : en:00:51:33.007
00:56:34.891 : en:00:56:34.891
01:03:47.574 : en:01:03:47.574
01:10:32.353 : en:01:10:32.353
01:22:26.483 : en:01:22:26.483
01:30:58.328 : en:01:30:58.328

Скриншоты

If your ratio falls below 0.3, you will not be able to download Torrents! More about the rating.

[erzsebet.pl].t571.torrent
Torrent: Registered [ 2017-12-02 16:56 ] · 56D86CF4D747C68C4E0BE1DC4CD766C18DF3DAC9

Download .torrent

Download

11 KB

Status: checked
Completed: 16 times
Size: 2.1 GB
terms.php
[Profile] [PM]
Display posts:    
Reply to topic

Current time is: 24-Jan 14:41

All times are UTC ± 0



You cannot post new topics in this forum
You cannot reply to topics in this forum
You cannot edit your posts in this forum
You cannot delete your posts in this forum
You cannot vote in polls in this forum
You cannot attach files in this forum
You can download files in this forum