Подземка / Subway (Люк Бессон / Luc Besson) [1985, Франция, триллер, BDRip] DVO (ОРТ) + Original Fre

Reply to topic
DL-List and Torrent activity
Size:  1.46 GB   |    Registered:  3 years 1 month   |    Completed:  16 times

Seeder not seen: Never

 
   
 
 
Author Message

erzsebet.org ®

Longevity: 3 years 1 month

Posts: 47596

Post 02-Dec-2017 16:54

[Quote]

Подземка / Subway
Год выпуска: 1985
Страна: Франция
Жанр: триллер
Продолжительность: 01:42:20
Перевод: Профессиональный (двухголосый закадровый) - ОРТ
Субтитры: нет
Оригинальная аудиодорожка: французский
Режиссер: Люк Бессон / Luc Besson
В ролях: Изабель Аджани / Héléna, Кристофер Ламберт / Fred, Ришар Боренже / Le Fleuriste, Мишель Галабрю / Le Commissaire Gesberg, Жан-Юг Англад / Le Roller, Жан-Пьер Бакри / Batman, Жан Буиз / Le Chef de Station, Жан Рено / Le Batteur-Мировая премьера: 10 сентября 1985-Описание: Некий бродяга похищает у некоего бизнесмена ценные бумаги. Похитителя зовут Фред. Он скрывается в метро, разыскиваемый полицией и людьми бизнесмена. Ищет Фреда и жена бизнесмена Елена, косвенно виновная в инциденте: именно она впустила в свой дом на вечеринку понравившегося ей незнакомца, который и оказался вором. В катакомбах метрополитена Елена знакомится с пестрым живописным обществом постоянных обитателей "подземки", проникшись к ним полным сочувствием и ощутив бессмысленность собственного существования "наверху" в праздности и сытости.-Огромная благодарность:
Shevon - видеоряд с рутора.
Fikaloid - личная оцифровка перевода ОРТ со своей лицензионной видеокассеты от видеокомпании "ОРТ-Видео".
JUSTKANT - синхронизация перевода.-На русский язык фильм озвучен кинокомпанией "Селена Интернешнл" по заказу Общественного Российского Телевидения.
Текст читают Александр Рахленко и Ольга Голованова.-
Рейтинг

MPAA: R - Лицам до 17 лет обязательно присутствие взрослого.-Качество видео: BDRip
Формат видео: AVI -> //Сэмпл//
Видео: XviD, 720x304 (2.35:1), 24.000 fps, 1646 kbps
Аудио:
1 - 48 khz, AC3 Dolby Digital, 2/0 (L,R) ch, ~192 kbps [ОРТ] VHSRip-ТВ
2 - 48 khz, AC3 Dolby Digital, 2/0 (L,R) ch, ~192 kbps [Французский]

MediaInfo

General
Complete name : D:\Подземка (ОРТ + Оригинал).avi
Format : AVI
Format/Info : Audio Video Interleave
File size : 1.46 GiB
Duration : 1 h 42 min
Overall bit rate : 2 044 kb/s
Movie name : Подземка / Subway (ОРТ + Оригинал)
Director : JUSTKANT
Writing application : VirtualDubMod 1.5.10.3 (build 2550/release)
Copyright : На русский язык фильм озвучен кинокомпанией "Селена Интернешнл" по заказу ОРТ
Comment : Качество звука: VHSRip (Fikaloid)
Video
ID : 0
Format : MPEG-4 Visual
Format profile : Advanced [email protected]
Format settings, BVOP : 1
Format settings, QPel : No
Format settings, GMC : No warppoints
Format settings, Matrix : Custom
Codec ID : XVID
Codec ID/Hint : XviD
Duration : 1 h 42 min
Bit rate : 1 646 kb/s
Width : 720 pixels
Height : 304 pixels
Display aspect ratio : 2.35:1
Frame rate : 24.000 FPS
Color space : YUV
Chroma subsampling : 4:2:0
Bit depth : 8 bits
Scan type : Progressive
Compression mode : Lossy
Bits/(Pixel*Frame) : 0.313
Stream size : 1.18 GiB (81%)
Writing library : XviD 1.2.1 (UTC 2008-12-04)
Audio #1
ID : 1
Format : AC-3
Format/Info : Audio Coding 3
Format settings, Endianness : Big
Codec ID : 2000
Duration : 1 h 42 min
Bit rate mode : Constant
Bit rate : 192 kb/s
Channel(s) : 2 channels
Channel positions : Front: L R
Sampling rate : 48.0 kHz
Frame rate : 31.250 FPS (1536 SPF)
Bit depth : 16 bits
Compression mode : Lossy
Stream size : 141 MiB (9%)
Alignment : Split accross interleaves
Interleave, duration : 42 ms (1.00 video frame)
Interleave, preload duratio : 500 ms
Title : ОРТ: Александр Рахленко и Ольга Голованова
Service kind : Complete Main
Audio #2
ID : 2
Format : AC-3
Format/Info : Audio Coding 3
Format settings, Endianness : Big
Codec ID : 2000
Duration : 1 h 42 min
Bit rate mode : Constant
Bit rate : 192 kb/s
Channel(s) : 2 channels
Channel positions : Front: L R
Sampling rate : 48.0 kHz
Frame rate : 31.250 FPS (1536 SPF)
Bit depth : 16 bits
Compression mode : Lossy
Stream size : 141 MiB (9%)
Alignment : Split accross interleaves
Interleave, duration : 42 ms (1.00 video frame)
Interleave, preload duratio : 500 ms
Title : Оригинальный (французский)
Service kind : Complete Main

Скриншот c названием фильма

Скриншоты

If your ratio falls below 0.3, you will not be able to download Torrents! More about the rating.

[erzsebet.pl].t573.torrent
Torrent: Registered [ 2017-12-02 16:56 ] · D8CD15DC1F33EAA85F089B9A692C40998291D4

Download .torrent

Download

15 KB

Status: checked
Completed: 16 times
Size: 1.46 GB
terms.php
[Profile] [PM]
Display posts:    
Reply to topic

Current time is: 28-Jan 08:56

All times are UTC ± 0



You cannot post new topics in this forum
You cannot reply to topics in this forum
You cannot edit your posts in this forum
You cannot delete your posts in this forum
You cannot vote in polls in this forum
You cannot attach files in this forum
You can download files in this forum