Мальчишка / Kid (Джон Марк Робинсон / John Mark Robinson) [1990, США, Боевик, драма, DVDRip] AVO (С. Кузнецов) + Original Eng

Reply to topic
DL-List and Torrent activity
Size:  1.44 GB   |    Registered:  3 years 1 month   |    Completed:  16 times

Seeder not seen: Never

 
   
 
 
Author Message

erzsebet.org ®

Longevity: 3 years 1 month

Posts: 47596

Post 02-Dec-2017 16:54

[Quote]

Мальчишка / Kid
Страна: США
Жанр: Боевик , драма
Год выпуска: 1990
Продолжительность: 1:27:40
Перевод: Авторский (одноголосый закадровый) С. Кузнецов
Субтитры: нет
Оригинальная аудиодорожка: английский
Режиссер: Джон Марк Робинсон / John Mark Robinson
В ролях: С.Томас Хауэлл, Сара Триггер, Брайан Остин Грин, Дейл Дай, Майкл Боуэн, Дэймон Мартин, Ленор Касдорф, Майкл Кавана, Тони Эппер, Дон Колье, Дон Бэйкер, Дон Старр, Фред Шугерман, Хезер МакНейр, Джей Бернард, Джеймс Эрик, Энтони Расселл, Уорнер МакКэй, Джейби Уоррен
Описание: Молодой человек возвращается в родной город спустя 10 лет после трагической гибели своих родителей. Он возвращается, чтобы мстить. Потому что родители были убиты кучкой людей, лица которых навсегда врезались в детскую память...
Доп. информация: За видеоряд огромная благодарность poinvagina
Звуковая дорожка использована с этого релиза http://erzsebet.org/forum/viewtopic.php?t=1639499
Отсутствует перевод 00:09:40 - 00:10:12
Сэмпл: https://yadi.sk/i/sB42-vQs3Q3oZR
Качество видео: DVDRip
Формат видео: AVI
Видео: Xvid MPEG-4 , 640x480 (1.33:1) , 25.000 fps , 1 958 Kbps
Аудио: AC3 , 48 kHz , 192.00 kbps avg , 2/0 (L,R) ch
Аудио 2: AC3 , 48 kHz , 192.00 kbps avg , 2/0 (L,R) ch

MediaInfo

Complete name Мальчишка - Kid - 1990 (Kuznecov).avi
Format : AVI
Format/Info : Audio Video Interleave
File size : 1.44 GiB
Duration : 1h 27mn
Overall bit rate : 2 356 Kbps
Writing application : VirtualDubMod 1.5.10.3 | www.virtualdub-fr.org || (build 2550/release)
Writing library : VirtualDubMod build 2550/release
Video
ID : 0
Format : MPEG-4 Visual
Format profile : Advanced [email protected]
Format settings, BVOP : 1
Format settings, QPel : No
Format settings, GMC : No warppoints
Format settings, Matrix : Custom
Codec ID : XVID
Codec ID/Hint : XviD
Duration : 1h 27mn
Bit rate : 1 958 Kbps
Width : 640 pixels
Height : 480 pixels
Display aspect ratio : 4:3
Frame rate : 25.000 fps
Color space : YUV
Chroma subsampling : 4:2:0
Bit depth : 8 bits
Scan type : Progressive
Compression mode : Lossy
Bits/(Pixel*Frame) : 0.255
Stream size : 1.20 GiB (83%)
Writing library : XviD 73
Audio #1
ID : 1
Format : AC-3
Format/Info : Audio Coding 3
Mode extension : CM (complete main)
Format settings, Endianness : Big
Codec ID : 2000
Duration : 1h 27mn
Bit rate mode : Constant
Bit rate : 192 Kbps
Channel(s) : 2 channels
Channel positions : Front: L R
Sampling rate : 48.0 KHz
Frame rate : 31.250 fps (1536 spf)
Compression mode : Lossy
Stream size : 120 MiB (8%)
Alignment : Split accross interleaves
Interleave, duration : 40 ms (1.00 video frame)
Interleave, preload duratio : 500 ms
Audio #2
ID : 2
Format : AC-3
Format/Info : Audio Coding 3
Mode extension : CM (complete main)
Format settings, Endianness : Big
Codec ID : 2000
Duration : 1h 27mn
Bit rate mode : Constant
Bit rate : 192 Kbps
Channel(s) : 2 channels
Channel positions : Front: L R
Sampling rate : 48.0 KHz
Frame rate : 31.250 fps (1536 spf)
Compression mode : Lossy
Stream size : 120 MiB (8%)
Alignment : Split accross interleaves
Interleave, duration : 40 ms (1.00 video frame)
Interleave, preload duratio : 500 ms

If your ratio falls below 0.3, you will not be able to download Torrents! More about the rating.

[erzsebet.pl].t575.torrent
Torrent: Registered [ 2017-12-02 16:56 ] · 2EE834C98249508D45E3A8AA961F16190997D3F7

Download .torrent

Download

15 KB

Status: checked
Completed: 16 times
Size: 1.44 GB
terms.php
[Profile] [PM]
Display posts:    
Reply to topic

Current time is: 28-Jan 07:48

All times are UTC ± 0



You cannot post new topics in this forum
You cannot reply to topics in this forum
You cannot edit your posts in this forum
You cannot delete your posts in this forum
You cannot vote in polls in this forum
You cannot attach files in this forum
You can download files in this forum