Лифт / De Lift (Дик Маас / Dick Maas) [1983, Нидерланды, триллер, ужасы, HDRip] MVO (ТВ3) + Original Dut

Reply to topic
DL-List and Torrent activity
Size:  1.46 GB   |    Registered:  3 years 1 month   |    Completed:  16 times

Seeder not seen: Never

 
   
 
 
Author Message

erzsebet.org ®

Longevity: 3 years 1 month

Posts: 47596

Post 02-Dec-2017 16:54

[Quote]

Лифт / De Lift
Страна: Нидерланды
Жанр: триллер, ужасы
Год выпуска: 1983
Продолжительность: 01:38:44
Перевод: Профессиональный (многоголосый закадровый) ТВ3
Субтитры: нет
Оригинальная аудиодорожка: голландский
Режиссер: Дик Маас / Dick Maas
В ролях: Хуб Стапел /Huub Stapel/, Виллеке ван Аммерой /Willeke van Ammelrooy/, Йосина ван Далсум /Josine van Dalsum/, Йохан Хобо /Johan Hobo/, Эмма Онруст /Emma Onrust/, Питер Лютц /Pieter Lutz/
Описание: Этот фильм, несомненно, посвящается всем тем, кто боится ездить в лифтах. В новом высотном здании один из лифтов внезапно становится обладателем собственного мнения и решает отомстить тем жалким клаустрофобам, которые превратили его жизнь в подобное примитивное движение "вверх-вниз"...
Доп. информация: Русский закадровый перевод идет поверх английского дубляжа. Что интересно - английский дубляж на BD сделали новый, а не взяли с DVD.
Сэмпл: http://multi-up.com/1177580
Качество видео: HDRip
Формат видео: AVI
Видео: MPEG4, XviD, 720x432 (1.667), 23.976 fps, 1 520 Kbps (0.204 bit/pixel)
Аудио: AC-3, 48.0 KHz, 2 ch, 192 Kbps, CBR - русский
Аудио 2: AC-3, 48.0 KHz, 6 ch, 384 Kbps, CBR - голландский

MediaInfo

Общее
Полное имя : M:\Лифт.avi
Формат : AVI
Формат/Информация : Audio Video Interleave
Размер файла : 1,46 Гбайт
Продолжительность : 1 ч. 38 м.
Общий поток : 2110 Кбит/сек
Название фильма : Лифт / De Lift (1983)
Программа кодирования : VirtualDubMod 1.5.10.2 (build 2540/release)
Библиотека кодирования : VirtualDubMod build 2540/release
Авторское право : miha2154
Видео
Идентификатор : 0
Формат : MPEG-4 Visual
Профиль формата : Advanced [email protected]
Параметр BVOP формата : 1
Параметр QPel формата : Нет
Параметр GMC формата : Без точки перехода
Параметр матрицы формата : Выборочная
Идентификатор кодека : XVID
Идентификатор кодека/Подсказка : XviD
Продолжительность : 1 ч. 38 м.
Битрейт : 1520 Кбит/сек
Ширина : 720 пикселей
Высота : 432 пикселя
Соотношение сторон : 5:3
Частота кадров : 23,976 (24000/1001) кадра/сек
Цветовое пространство : YUV
Субдискретизация насыщенности : 4:2:0
Битовая глубина : 8 бит
Тип развёртки : Прогрессивная
Метод сжатия : С потерями
Бит/(Пиксели*Кадры) : 0.204
Размер потока : 1,05 Гбайт (72%)
Библиотека кодирования : XviD 65
Аудио #1
Идентификатор : 1
Формат : AC-3
Формат/Информация : Audio Coding 3
Расширение режима : CM (complete main)
Параметр Endianness формата : Big
Идентификатор кодека : 2000
Продолжительность : 1 ч. 38 м.
Вид битрейта : Постоянный
Битрейт : 192 Кбит/сек
Каналы : 2 канала
Расположение каналов : Front: L R
Частота : 48,0 КГц
Частота кадров : 31,250 кадров/сек (1536 spf)
Метод сжатия : С потерями
Размер потока : 136 Мбайт (9%)
Выравнивание : Разделение по промежуткам
Продолжительность промежутка : 42 мс. (1,00 видеокадр)
Время предзагрузки промежутка : 500 мс.
Заголовок : Профессиональный (многоголосый закадровый) ТВ3
Аудио #2
Идентификатор : 2
Формат : AC-3
Формат/Информация : Audio Coding 3
Расширение режима : CM (complete main)
Параметр Endianness формата : Big
Идентификатор кодека : 2000
Продолжительность : 1 ч. 38 м.
Вид битрейта : Постоянный
Битрейт : 384 Кбит/сек
Каналы : 6 каналов
Расположение каналов : Front: L C R, Side: L R, LFE
Частота : 48,0 КГц
Частота кадров : 31,250 кадров/сек (1536 spf)
Метод сжатия : С потерями
Размер потока : 271 Мбайт (18%)
Выравнивание : Разделение по промежуткам
Продолжительность промежутка : 42 мс. (1,00 видеокадр)
Время предзагрузки промежутка : 500 мс.
Заголовок : Голландский

Скриншоты


Сравнение

http://erzsebet.org/forum/viewtopic.php?t=5069300 - dvdrip, немного отличается наполнение кадра
http://screenshotcomparison.com/comparison/124500

If your ratio falls below 0.3, you will not be able to download Torrents! More about the rating.

[erzsebet.pl].t578.torrent
Torrent: Registered [ 2017-12-02 16:56 ] · B9CA924E2D810CC74E7FAC8928BF4DC861C96910

Download .torrent

Download

15 KB

Status: checked
Completed: 16 times
Size: 1.46 GB
terms.php
[Profile] [PM]
Display posts:    
Reply to topic

Current time is: 17-Jan 19:05

All times are UTC ± 0



You cannot post new topics in this forum
You cannot reply to topics in this forum
You cannot edit your posts in this forum
You cannot delete your posts in this forum
You cannot vote in polls in this forum
You cannot attach files in this forum
You can download files in this forum