Табак / Конец "Никотианы" / Тютюн (Николай Корабов / Никола Корабов) [1962, Болгария, драма, DVB] DVO (Кондор)

Reply to topic
DL-List and Torrent activity
Size:  1.85 GB   |    Registered:  3 years 1 month   |    Completed:  16 times

Seeder not seen: Never

 
   
 
 
Author Message

erzsebet.org ®

Longevity: 3 years 1 month

Posts: 47596

Post 02-Dec-2017 15:57

[Quote]

Табак / Конец "Никотианы" / Тютюн- Страна: Болгария
Жанр: драма
Год выпуска: 1962
Продолжительность: 02:21:27-Перевод: Профессиональный (двухголосый закадровый) - Студия "Кондор" по заказу ВГТРК
Субтитры: нет-Режиссер: Николай Корабов / Никола Корабов
В ролях: Невена Коканова, Йордан Матев, Иван Димов, Георгий Калоянчев, Петко Карлуковский, Стефан Пейчев, Никола Попов, Петр Слабаков, Георгий Стаматов, Мария Стоянова, Луна Давидова...- | Релиз: -Описание: Экранизация романа Димитра Димова "Табак".
Действие происходит в Болгарии на протяжении пятнадцати лет - с начала 30-х годов до конца Второй мировой войны. Фильм затрагивает судьбы людей, так или иначе связанных с табачной фирмой "Никотина", раскрывает неумолимый процесс деградации буржуазного общества на фоне роста революционных сил в стране.-Семпл: http://sendfile.su/1380153-Тип релиза: DVB
Контейнер: TS
Видео: 720x576 (4:3) @ 786x576, 25.000 fps, AVC, ~1583 Kbps, 0.153 bits/pixel
Аудио: Русский, 48.0 KHz, MPEG-1 Audio layer 2, 2 ch, 192 Kbps

MediaInfo

General
ID : 1 (0x1)
Complete name : Табак 1962 Культура DVO Кондор.ts
Format : MPEG-TS
File size : 1.85 GiB
Duration : 2 h 21 min
Overall bit rate mode : Variable
Overall bit rate : 1 869 kb/s
Video
ID : 205 (0xCD)
Menu ID : 1 (0x1)
Format : AVC
Format/Info : Advanced Video Codec
Format profile : [email protected]
Format settings : CABAC / 4 Ref Frames
Format settings, CABAC : Yes
Format settings, RefFrames : 4 frames
Format settings, GOP : M=4, N=28
Codec ID : 27
Duration : 2 h 21 min
Bit rate : 1 583 kb/s
Width : 720 pixels
Height : 576 pixels
Display aspect ratio : 4:3
Frame rate : 25.000 FPS
Standard : Component
Color space : YUV
Chroma subsampling : 4:2:0
Bit depth : 8 bits
Scan type : Interlaced
Scan type, store method : Separated fields
Scan order : Top Field First
Bits/(Pixel*Frame) : 0.153
Stream size : 1.56 GiB (85%)
Color range : Limited
Color primaries : BT.601 PAL
Transfer characteristics : BT.470 System B, BT.470 System G
Matrix coefficients : BT.470 System B, BT.470 System G
Audio
ID : 305 (0x131)
Menu ID : 1 (0x1)
Format : MPEG Audio
Format version : Version 1
Format profile : Layer 2
Codec ID : 3
Duration : 2 h 21 min
Bit rate mode : Constant
Bit rate : 192 kb/s
Channel(s) : 2 channels
Sampling rate : 48.0 kHz
Compression mode : Lossy
Delay relative to video : -40 ms
Stream size : 194 MiB (10%)
Language : Russian
Text
ID : 505 (0x1F9)-888
Menu ID : 1 (0x1)
Format : Teletext Subtitle
Language : Russian
Language, more info : For hearing impaired people

Скриншоты

If your ratio falls below 0.3, you will not be able to download Torrents! More about the rating.

[erzsebet.pl].t58.torrent
Torrent: Registered [ 2017-12-02 15:58 ] · 7440656A011190947356159C4A7812D45EBD7001

Download .torrent

Download

19 KB

Status: checked
Completed: 16 times
Size: 1.85 GB
terms.php
[Profile] [PM]
Display posts:    
Reply to topic

Current time is: 23-Jan 23:28

All times are UTC ± 0



You cannot post new topics in this forum
You cannot reply to topics in this forum
You cannot edit your posts in this forum
You cannot delete your posts in this forum
You cannot vote in polls in this forum
You cannot attach files in this forum
You can download files in this forum