Омен 2: Дэмиен / Damien: Omen II (Дон Тейлор / Don Taylor, Майк Ходжис / Mike Hodges) [1978, США, ужасы, триллер, BDRip] AVO (Гаврилов)

Reply to topic
DL-List and Torrent activity
Size:  1.46 GB   |    Registered:  3 years 1 month   |    Completed:  16 times

Seeder not seen: Never

 
   
 
 
Author Message

erzsebet.org ®

Longevity: 3 years 1 month

Posts: 47596

Post 02-Dec-2017 16:54

[Quote]

Омен 2: Дэмиен / Damien: Omen II
Страна: США
Жанр: ужасы, триллер
Год выпуска: 1978
Продолжительность: 01:46:52
Перевод: Авторский (одноголосый закадровый) Андрей Гаврилов
Субтитры: нет
Оригинальная аудиодорожка: нет
Режиссер: Дон Тейлор / Don Taylor, Майк Ходжис / Mike Hodges
В ролях: Уильям Холден, Ли Грант, Джонатан Скот-Тэйлор, Роберт Фоксуорт, Николас Прайор, Лью Эйрз, Сильвия Сидни, Лэнс Хенриксен, Элизабет Шеперд, Лукас Донат
Описание: Семь лет прошло с того дня, как Дэмиен чудом избежал смерти от руки своего отца. Теперь ему 13, и он живет вместе со своим дядей Ричардом Торном, тетей и двоюродным братом Марком. Пока юный Антихрист познаёт свою чудовищную силу и как ею пользоваться, за его безопасностью следят множество служителей Дьявола, жестоко уничтожая всех неугодных. Его дядя постепенно понимает, что мальчик не так невинен, как может показаться, и ему открывается чудовищная правда. Вооружившись семью древними кинжалами, Торн собирается очистить мир от самой страшной нечисти на земле. Но многие пытались убить сына Сатаны, и теперь все они в могиле. Сможет ли это сделать Ричард Торн или присоединится к своим предшественникам в качестве трупа?...
Доп. информация:
Релиз от
Рип от Menen - http://erzsebet.org/forum/viewtopic.php?t=3059076
Сэмпл
Качество видео: BDRip
Формат видео: AVI
Видео: XviD; 720x304 (2,35:1); 1559 Kbps; 23,976 fps; 0,297 bit/pixel
Аудио: AC3; 48 kHz, 384 Kbps; CBR; 6 ch

MediaInfo

Общее
Полное имя : Omen.II.Damien.1978.BDRip.Gavrilov.lumpeN.avi
Формат : AVI
Формат/Информация : Audio Video Interleave
Размер файла : 1,46 Гбайт
Продолжительность : 1 ч. 46 м.
Общий поток : 1952 Кбит/сек
Название фильма : lumpeN
Программа кодирования : VirtualDubMod 1.5.10.2 (build 2540/release)
Библиотека кодирования : VirtualDubMod build 2540/release
Видео
Идентификатор : 0
Формат : MPEG-4 Visual
Профиль формата : Advanced [email protected]
Настройки формата : BVOP1 / Custom Matrix
Параметр BVOP формата : 1
Параметр QPel формата : Нет
Параметр GMC формата : Без точки перехода
Параметр матрицы формата : Выборочная
Идентификатор кодека : XVID
Идентификатор кодека/Подсказка : XviD
Продолжительность : 1 ч. 46 м.
Битрейт : 1559 Кбит/сек
Ширина : 720 пикселей
Высота : 304 пикселя
Соотношение сторон : 2,35:1
Частота кадров : 23,976 (24000/1001) кадра/сек
Цветовое пространство : YUV
Субдискретизация насыщенности : 4:2:0
Битовая глубина : 8 бит
Тип развёртки : Прогрессивная
Метод сжатия : С потерями
Бит/(Пиксели*Кадры) : 0.297
Размер потока : 1,16 Гбайт (80%)
Библиотека кодирования : XviD 1.2.1 (UTC 2008-12-04)
Аудио
Идентификатор : 1
Формат : AC-3
Формат/Информация : Audio Coding 3
Идентификатор кодека : 2000
Продолжительность : 1 ч. 46 м.
Вид битрейта : Постоянный
Битрейт : 384 Кбит/сек
Каналы : 6 каналов
Расположение каналов : Front: L C R, Side: L R, LFE
Частота : 48,0 КГц
Частота кадров : 31,250 кадров/сек (1536 SPF)
Битовая глубина : 16 бит
Метод сжатия : С потерями
Размер потока : 294 Мбайт (20%)
Выравнивание : Разделение по промежуткам
Продолжительность промежутка : 42 мс. (1,00 видеокадр)
Время предзагрузки промежутка : 500 мс.
Заголовок : Gavrilov
ServiceKind/String : Complete Main

Скриншоты

If your ratio falls below 0.3, you will not be able to download Torrents! More about the rating.

[erzsebet.pl].t580.torrent
Torrent: Registered [ 2017-12-02 16:56 ] · A9AA2464BA0A2F211B4A390F372D0BABBE9C0F10

Download .torrent

Download

15 KB

Status: checked
Completed: 16 times
Size: 1.46 GB
terms.php
[Profile] [PM]
Display posts:    
Reply to topic

Current time is: 17-Jan 19:18

All times are UTC ± 0



You cannot post new topics in this forum
You cannot reply to topics in this forum
You cannot edit your posts in this forum
You cannot delete your posts in this forum
You cannot vote in polls in this forum
You cannot attach files in this forum
You can download files in this forum