В поисках... / Anazitisis... (Эррикос Андреу / Erricos Andreou) [1972, Греция, драма, криминал, DVDRip] VO (den904) + Sub Rus (Антон Каптелов) + Original Greec

Reply to topic
DL-List and Torrent activity
Size:  1.48 GB   |    Registered:  3 years 1 month   |    Completed:  16 times

Seeder not seen: Never

 
   
 
 
Author Message

erzsebet.org ®

Longevity: 3 years 1 month

Posts: 47596

Post 02-Dec-2017 16:54

[Quote]

В поисках... / Anazitisis... Страна: Греция
Жанр: драма, криминал
Год выпуска: 1972
Продолжительность: 01:24:42
Перевод: Субтитры Антон Каптелов
Озвучивание: Одноголосый закдровый den904
Субтитры: русские
Оригинальная аудиодорожка: греческий
Режиссер: Эррикос Андреу / Erricos Andreou
В ролях: Ангелос Антонопулос, Елена Натаниэль, Васос Андронидис, Динос Каридис, Тодорос Эксархос, Тассо Кавадия, Джаннис Фириос, Маргарита Герарду
Описание: Миллионер Танос Вергис, несмотря на то, что давно уже переступил порог среднего возраста, все еще находится в поисках спутницы жизни. Собственно, сам поиск стал для него куда важнее результата. Ежедневно он встречается с новой девушкой, в которой надеется увидеть ту, что останется с ним на годы, но сам уже не слишком верит, что это когда-нибудь произойдет. Одну из его пассий «на час» находят убитой и улики указывают на богатого прожигателя жизни. Полиция начинает расследование.
Сэмпл: http://multi-up.com/1177479
Качество видео: DVDRip (исходник ДВД-5 с Синематика)
Формат видео: AVI
Видео: 688x512 (1.34:1), 25 fps, XviD build 67 ~2098 kbps avg, 0.24 bit/pixel
Аудио 1: 48 kHz, AC3 Dolby Digital, 2/0 (L,R) ch, ~192 kbps русский
Аудио 2: 48 kHz, AC3 Dolby Digital, 2/0 (L,R) ch, ~192 kbps греческий
Формат субтитров: softsub (SRT)
Релиз:
18+
ВНИМАНИЕ: в связи с добавлением озвучки, торрент-файл перезалит 24.11.2017 в 14:00 по Мск.

MediaInfo

Формат : AVI
Формат/Информация : Audio Video Interleave
Размер файла : 1,48 Гбайт
Продолжительность : 1 ч. 24 м.
Общий поток : 2497 Кбит/сек
Программа кодирования : VirtualDubMod 1.5.10.2 (build 2540/release)
Библиотека кодирования : VirtualDubMod build 2540/release
Видео
Идентификатор : 0
Формат : MPEG-4 Visual
Профиль формата : Advanced [email protected]
Параметр BVOP формата : 2
Параметр QPel формата : Нет
Параметр GMC формата : Без точки перехода
Параметр матрицы формата : Default (MPEG)
Идентификатор кодека : XVID
Идентификатор кодека/Подсказка : XviD
Продолжительность : 1 ч. 24 м.
Битрейт : 2099 Кбит/сек
Ширина : 688 пикселей
Высота : 512 пикселей
Соотношение сторон : 4:3
Частота кадров : 25,000 кадров/сек
Цветовое пространство : YUV
Субдискретизация насыщенности : 4:2:0
Битовая глубина : 8 бит
Тип развёртки : Прогрессивная
Метод сжатия : С потерями
Бит/(Пиксели*Кадры) : 0.238
Размер потока : 1,24 Гбайт (84%)
Библиотека кодирования : XviD 67
Аудио #1
Идентификатор : 1
Формат : AC-3
Формат/Информация : Audio Coding 3
Расширение режима : CM (complete main)
Параметр Endianness формата : Big
Идентификатор кодека : 2000
Продолжительность : 1 ч. 24 м.
Вид битрейта : Постоянный
Битрейт : 192 Кбит/сек
Каналы : 2 канала
Расположение каналов : Front: L R
Частота : 48,0 КГц
Частота кадров : 31,250 кадров/сек (1536 spf)
Метод сжатия : С потерями
Размер потока : 116 Мбайт (8%)
Выравнивание : Разделение по промежуткам
Продолжительность промежутка : 40 мс. (1,00 видеокадр)
Время предзагрузки промежутка : 500 мс.
Аудио #2
Идентификатор : 2
Формат : AC-3
Формат/Информация : Audio Coding 3
Расширение режима : CM (complete main)
Параметр Endianness формата : Big
Идентификатор кодека : 2000
Продолжительность : 1 ч. 24 м.
Вид битрейта : Постоянный
Битрейт : 192 Кбит/сек
Каналы : 2 канала
Расположение каналов : Front: L R
Частота : 48,0 КГц
Частота кадров : 31,250 кадров/сек (1536 spf)
Метод сжатия : С потерями
Размер потока : 116 Мбайт (8%)
Выравнивание : Разделение по промежуткам
Продолжительность промежутка : 40 мс. (1,00 видеокадр)
Время предзагрузки промежутка : 500 мс.

Скриншот c названием фильма

Пример субтитров

13
00:02:47,987 --> 00:02:49,596
Да, сэр!
14
00:02:51,582 --> 00:02:54,354
- Очень жарко!
- Тридцать семь градусов в тени.
15
00:02:55,558 --> 00:02:57,059
Что нового сегодня?
16
00:02:57,193 --> 00:02:59,373
Новое крушение танкеров в Индийском океане.
17
00:02:59,536 --> 00:03:02,833
В Италии центристы в правительстве.
В Канаде - угон самолета.
18
00:03:02,979 --> 00:03:04,509
А что-нибудь необычное?
19
00:03:04,680 --> 00:03:06,524
К сожалению, ничего.
20
00:03:43,431 --> 00:03:44,991
Сколько времени?
21
00:03:46,411 --> 00:03:48,061
Пять минут четвертого.
22
00:03:48,269 --> 00:03:50,119
Хорошо, можешь идти.
23
00:03:51,372 --> 00:03:52,881
Благодарю!
24
00:04:24,039 --> 00:04:25,750
- Мистер Вергис?
- Да.
25
00:04:25,902 --> 00:04:27,923
- Мариса.
- Входите!
26
00:06:47,390 --> 00:06:49,313
Здесь очень уютно.
27
00:06:49,903 --> 00:06:51,700
Я бы хотела приехать снова.
28
00:07:50,348 --> 00:07:52,192
- Мистер Вергис?
- Да.
29
00:07:52,317 --> 00:07:54,103
- Алиса.
- Входи!
30
00:09:46,694 --> 00:09:48,051
Да?
31
00:09:48,224 --> 00:09:49,601
Лондон?
32
00:09:49,718 --> 00:09:51,325
Нет, пожалуйста,
отмените приглашение.
33
00:09:51,462 --> 00:09:53,065
Возможно, позже.
Огромное спасибо Антону Каптеловуза перевод, den904 за озвучку и коллективу портала ВидеоДемонс (Oldfriend, killer snowman, sdv7, Фирсов, sepuslayer, Hirosima, idalgo) за организацию озвучки фильма!

If your ratio falls below 0.3, you will not be able to download Torrents! More about the rating.

[erzsebet.pl].t581.torrent
Torrent: Registered [ 2017-12-02 16:56 ] · 8DCE7EBE6605560A449C866F05CA36FBEC5E8F67

Download .torrent

Download

15 KB

Status: checked
Completed: 16 times
Size: 1.48 GB
terms.php
[Profile] [PM]
Display posts:    
Reply to topic

Current time is: 23-Jan 10:50

All times are UTC ± 0



You cannot post new topics in this forum
You cannot reply to topics in this forum
You cannot edit your posts in this forum
You cannot delete your posts in this forum
You cannot vote in polls in this forum
You cannot attach files in this forum
You can download files in this forum