Сумятица в мыслях / Умопомрачение / Trouble in Mind (Алан Рудольф / Alan Rudolph) [1985, США, драма, криминал, неонуар, DVDRip] VO (allecs2010)

Reply to topic
DL-List and Torrent activity
Size:  1.46 GB   |    Registered:  3 years 1 month   |    Completed:  16 times

Seeder not seen: Never

 
   
 
 
Author Message

erzsebet.org ®

Longevity: 3 years 1 month

Posts: 47596

Post 02-Dec-2017 16:54

[Quote]

Сумятица в мыслях / Умопомрачение / Trouble in Mind
Страна: США
Жанр: драма, криминал, неонуар
Год выпуска: 1985
Продолжительность: 01:52:15
-
Перевод: Одноголосый закадровый allecs2010 по субтитрам Verrucka
Субтитры: нет
-
Режиссер: Алан Рудольф / Alan Rudolph
В ролях: Крис Кристофферсон, Кит Кэрредин, Лори Сингер, Женевьев Бюжо, Джо Мортон, Дивайн, Джордж Кирби, Джон Консидайн, Дирк Блокер, Альберт Холл, Гейлард Сартейн, Роберт Гулд, Аллан Ф. Николлс, Дебра Дюсэй, Уильям Холл, Роберт Ким, Роберт Исаак Ли, Трэйси Кристофферсон, Лэнс Дж. Холт, Грег Уэйн Элам, Джеймс Крэбтри
-
Описание: Бывший полицейский Хоук, отсидев восемь лет за убийство, совершённое из-за женщины, возвращается в родной Рэйн Сити («Город дождя), где его прежняя возлюбленная Ванда открыла кафе, носящее её собственное имя. А Хоука угораздило влюбиться с первого взгляда в одну из посетительниц кафе, Джорджию, молодую жену грабителя Купа, который задумал дерзкую акцию похищения драгоценностей...
-
Доп. информация: Видео http://erzsebet.org/forum/viewtopic.php?t=5437913
-
Сэмпл: http://sendfile.su/1379630
-
Качество видео: DVDRip
Формат видео: AVI
Видео: XviD, 704x400 (16:9), 23.976 fps, 1659 kbps avg
Аудио: AC3 Dolby Digital, 48 kHz, 2/0 (L,R) ch, 192.00 kbps avg

MediaInfo

General
Complete name : C:\Users\ALEX\Desktop\Фильмы\Trouble In Mind.1985.RUS.DVDRip.XviD.AC3.avi
Format : AVI
Format/Info : Audio Video Interleave
File size : 1.46 GiB
Duration : 1 h 52 min
Overall bit rate : 1 861 kb/s
Writing application : VirtualDubMod 1.5.10.2 (build 2542/release)
Writing library : VirtualDubMod build 2542/release
Video
ID : 0
Format : MPEG-4 Visual
Format profile : Advanced [email protected]
Format settings : BVOP1 / Custom Matrix
Format settings, BVOP : 1
Format settings, QPel : No
Format settings, GMC : No warppoints
Format settings, Matrix : Custom
Codec ID : XVID
Codec ID/Hint : XviD
Duration : 1 h 52 min
Bit rate : 1 659 kb/s
Width : 704 pixels
Height : 400 pixels
Display aspect ratio : 16:9
Frame rate : 23.976 (24000/1001) FPS
Color space : YUV
Chroma subsampling : 4:2:0
Bit depth : 8 bits
Scan type : Progressive
Compression mode : Lossy
Bits/(Pixel*Frame) : 0.246
Stream size : 1.30 GiB (89%)
Writing library : XviD 73
Audio
ID : 1
Format : AC-3
Format/Info : Audio Coding 3
Format settings, Endianness : Big
Codec ID : 2000
Duration : 1 h 52 min
Bit rate mode : Constant
Bit rate : 192 kb/s
Channel(s) : 2 channels
Channel positions : Front: L R
Sampling rate : 48.0 kHz
Frame rate : 31.250 FPS (1536 SPF)
Bit depth : 16 bits
Compression mode : Lossy
Stream size : 154 MiB (10%)
Alignment : Split accross interleaves
Interleave, duration : 42 ms (1.00 video frame)
Interleave, preload duratio : 500 ms
Service kind : Complete Main

Скриншоты

If your ratio falls below 0.3, you will not be able to download Torrents! More about the rating.

[erzsebet.pl].t585.torrent
Torrent: Registered [ 2017-12-02 16:56 ] · EAE713DC1C948190926701CCB65D1F4DE9055EC5

Download .torrent

Download

15 KB

Status: checked
Completed: 16 times
Size: 1.46 GB
terms.php
[Profile] [PM]
Display posts:    
Reply to topic

Current time is: 21-Jan 17:55

All times are UTC ± 0



You cannot post new topics in this forum
You cannot reply to topics in this forum
You cannot edit your posts in this forum
You cannot delete your posts in this forum
You cannot vote in polls in this forum
You cannot attach files in this forum
You can download files in this forum