Волчонок / Teen Wolf (Род Дэниэл / Rod Daniel) [1985, США, комедия, фэнтези, мелодрама, BDRip] AVO (Михаил Иванов)

Reply to topic
DL-List and Torrent activity
Size:  1.39 GB   |    Registered:  3 years 1 month   |    Completed:  16 times

Seeder not seen: Never

 
   
 
 
Author Message

erzsebet.org ®

Longevity: 3 years 1 month

Posts: 47596

Post 02-Dec-2017 17:13

[Quote]

Волчонок / Teen Wolf
Страна: США
Жанр: комедия, фэнтези, мелодрама
Год выпуска: 1985
Продолжительность: 01:32:20
Перевод: Авторский (одноголосый закадровый) Михаил Иванов
Субтитры: нет
Режиссер: Род Дэниэл / Rod Daniel
В ролях: Майкл Дж. Фокс, Джеймс Хэмптон, Сьюзэн Урситти, Джерри Ливайн, Мэтт Адлер, Лори Гриффин, Джим МакКрелл, Марк Арнольд
Описание: Кто в подростковом возрасте не хочет выделиться из серых масс и нравиться всем девушке в округе? Именно об этом и мечтал молодой парень по имени Скотт Ховард. И у него это получилось, но немного необычным способом. Однажды, среди ночи, он превращается в оборотня. Как объяснил ему его отец – это у них наследственное. Волк не опасен, а наоборот, все его необычайные способности помогут добиться внимания девушек и ставить рекорды на спортивных состязаниях. Так и произошло. Теперь Ховард самый популярный юноша в школе....
Доп. информация: Выражаю огромную благодарность Нордеру за синхронизацию звуковой дорожки.
Сэмпл: http://multi-up.com/1177381
Качество видео: BDRip (Исходник BDRemux 1080p)
Формат видео: AVI
Видео: XviD 73, 704x384, (1,85:1), 23,976 fps, 1948 Кбит/с, 8 бит, 0.30 bit/pixel
Аудио: Русский (АС3, 2 ch (Front: L R), 48,0 KHz, 192 Kbps)

MediaInfo

Общее
Полное имя : H:\Фильмы на трекер\Волчонок (комедия, фэнтези, мелодрама 1985 год).avi
Формат : AVI
Формат/Информация : Audio Video Interleave
Размер файла : 1,39 Гбайт
Продолжительность : 1 ч. 32 м.
Общий поток : 2150 Кбит/сек
Программа кодирования : VirtualDubMod 1.5.10.2 (build 2540/release)
Библиотека кодирования : VirtualDubMod build 2540/release
Видео
Идентификатор : 0
Формат : MPEG-4 Visual
Профиль формата : Advanced [email protected]
Параметр BVOP формата : 2
Параметр QPel формата : Нет
Параметр GMC формата : Без точки перехода
Параметр матрицы формата : Выборочная
Идентификатор кодека : XVID
Идентификатор кодека/Подсказка : XviD
Продолжительность : 1 ч. 32 м.
Битрейт : 1948 Кбит/сек
Ширина : 704 пикселя
Высота : 384 пикселя
Соотношение сторон : 1,85:1
Частота кадров : 23,976 (23976/1000) кадра/сек
Цветовое пространство : YUV
Субдискретизация насыщенности : 4:2:0
Битовая глубина : 8 бит
Тип развёртки : Прогрессивная
Метод сжатия : С потерями
Бит/(Пиксели*Кадры) : 0.301
Размер потока : 1,26 Гбайт (91%)
Библиотека кодирования : XviD 73
Аудио
Идентификатор : 1
Формат : AC-3
Формат/Информация : Audio Coding 3
Расширение режима : CM (complete main)
Параметр Endianness формата : Big
Идентификатор кодека : 2000
Продолжительность : 1 ч. 32 м.
Вид битрейта : Постоянный
Битрейт : 192 Кбит/сек
Каналы : 2 канала
Расположение каналов : Front: L R
Частота : 48,0 КГц
Частота кадров : 31,250 кадров/сек (1536 spf)
Метод сжатия : С потерями
Размер потока : 127 Мбайт (9%)
Выравнивание : Разделение по промежуткам
Продолжительность промежутка : 42 мс. (1,00 видеокадр)
Время предзагрузки промежутка : 500 мс.

Скриншот c названием фильма

Скриншоты

If your ratio falls below 0.3, you will not be able to download Torrents! More about the rating.

[erzsebet.pl].t586.torrent
Torrent: Registered [ 2017-12-02 17:13 ] · 05D8621206522BD57E96FC70413EBBC998D573F1

Download .torrent

Download

14 KB

Status: checked
Completed: 16 times
Size: 1.39 GB
terms.php
[Profile] [PM]
Display posts:    
Reply to topic

Current time is: 21-Jan 17:25

All times are UTC ± 0



You cannot post new topics in this forum
You cannot reply to topics in this forum
You cannot edit your posts in this forum
You cannot delete your posts in this forum
You cannot vote in polls in this forum
You cannot attach files in this forum
You can download files in this forum