Фруктовый автомат / Страна чудес / The Fruit Machine (Филип Савилл / Philip Saville) [1988, Великобритания, драма, DVDRip] AVO (Медведев)

Reply to topic
DL-List and Torrent activity
Size:  1.42 GB   |    Registered:  3 years 1 month   |    Completed:  16 times

Seeder not seen: Never

 
   
 
 
Author Message

erzsebet.org ®

Longevity: 3 years 1 month

Posts: 47596

Post 02-Dec-2017 17:13

[Quote]

Фруктовый автомат / Страна чудесThe Fruit Machine Страна: Великобритания
Жанр: драма
Год выпуска: 1988
Продолжительность: 01:43:01-Перевод: Авторский (одноголосый закадровый) Алексей Медведев
Субтитры: нет-Режиссер: Филип Савилл / Philip Saville
В ролях: Эмиль Чарльз, Тони Форсайт, Роберт Стивенс, Клэр Хиггинс, Брюс Пэйн, Робби Колтрейн, Карстен Норгаард, Ким Кристи-Описание:
16-летний Эдди сбегает из дома, где его постоянно унижал отец. Со своим другом Майклом (они оба геи) они на гей-дискотеке под названием «Фруктовый автомат» видят как киллер убивает хозяина дискотеки. Они убегают, но киллер преследует их… Фильм построен на хитрости одного и простоватости другого.-Сэмпл-Качество видео: DVDRip
Формат видео: AVI
Видео: 720x400 (1.80:1), 25 fps, XviD build 47 ~1767 kbps avg, 0.25 bit/pixel
Аудио: 48 kHz, AC3 Dolby Digital, 2/0 (L,R) ch, ~192 kbps

MediaInfo

General
Complete name : G:\Fruit.Machine.1988.avi
Format : AVI
Format/Info : Audio Video Interleave
File size : 1.42 GiB
Duration : 1h 43mn
Overall bit rate : 1 970 Kbps
Writing application : VirtualDubMod 1.5.10.2 (build 2540/release)
Writing library : VirtualDubMod build 2540/release
Video
ID : 0
Format : MPEG-4 Visual
Format profile : Advanced [email protected]
Format settings, BVOP : 2
Format settings, QPel : No
Format settings, GMC : No warppoints
Format settings, Matrix : Default (H.263)
Codec ID : XVID
Codec ID/Hint : XviD
Duration : 1h 43mn
Bit rate : 1 768 Kbps
Width : 720 pixels
Height : 400 pixels
Display aspect ratio : 16:9
Frame rate : 25.000 fps
Color space : YUV
Chroma subsampling : 4:2:0
Bit depth : 8 bits
Scan type : Progressive
Compression mode : Lossy
Bits/(Pixel*Frame) : 0.246
Stream size : 1.27 GiB (90%)
Writing library : XviD 1.2.0.dev47 (UTC 2006-11-01)
Audio
ID : 1
Format : AC-3
Format/Info : Audio Coding 3
Mode extension : CM (complete main)
Format settings, Endianness : Big
Codec ID : 2000
Duration : 1h 43mn
Bit rate mode : Constant
Bit rate : 192 Kbps
Channel(s) : 2 channels
Channel positions : Front: L R
Sampling rate : 48.0 KHz
Bit depth : 16 bits
Compression mode : Lossy
Stream size : 141 MiB (10%)
Alignment : Split accross interleaves
Interleave, duration : 40 ms (1.00 video frame)
Interleave, preload duration : 500 ms

Скриншот c названием фильма

Скриншоты

If your ratio falls below 0.3, you will not be able to download Torrents! More about the rating.

[erzsebet.pl].t590.torrent
Torrent: Registered [ 2017-12-02 17:13 ] · 1D29C786AF1176692E25E16B58209366EE29E011

Download .torrent

Download

15 KB

Status: checked
Completed: 16 times
Size: 1.42 GB
terms.php
[Profile] [PM]
Display posts:    
Reply to topic

Current time is: 26-Jan 07:51

All times are UTC ± 0



You cannot post new topics in this forum
You cannot reply to topics in this forum
You cannot edit your posts in this forum
You cannot delete your posts in this forum
You cannot vote in polls in this forum
You cannot attach files in this forum
You can download files in this forum