Кобра / Cobra (Джордж Пан Косматос / George P. Cosmatos) [1986, США, триллер, боевик, криминал, BDRip] AVO (Василий Горчаков) + AVO (Вартан Дохалов)

Reply to topic
DL-List and Torrent activity
Size:  1.72 GB   |    Registered:  3 years 1 month   |    Completed:  16 times

Seeder not seen: Never

 
   
 
 
Author Message

erzsebet.org ®

Longevity: 3 years 1 month

Posts: 47596

Post 02-Dec-2017 17:13

[Quote]

Кобра / Cobra
Страна: США
Жанр: триллер, боевик, криминал
Год выпуска: 1986
Продолжительность: 01:27:03
Перевод: Авторский (одноголосый закадровый) Василий Горчаков
Перевод 2: Авторский (одноголосый закадровый) Вартан Дохалов (отдельно)
Субтитры: нет
Режиссер: Джордж Пан Косматос / George P. Cosmatos
В ролях: Сильвестр Сталлоне, Бриджитт Нильсен, Рени Сантони, Эндрю Робинсон, Брайан Томпсон, Джон Херцфелд, Ли Гарлингтон, Арт ЛаФлёр, Марко Родригес
Описание: Трудовые будни полицейского Марио Кобретти скучными не назовёшь. Вооружённые бандиты врываются в супермаркеты, стреляют в людей, а репортёры и некоторые коллеги призывают соблюдать права этих головорезов. Но основная проблема лейтенанта по прозвищу Кобра – это банда жестокого убийцы Найта Слэшера. Выйти на след злодея удаётся случайно. Его замечает на месте очередного преступления проезжающая мимо фотомодель Ингрид. Слэшер и его сообщники начинают преследовать девушку, и защитить её может только Кобра, имеющий своё понимание закона и справедливости.
Доп. информация: Выражаю огромную благодарность Нордеру за синхронизацию звуковой дорожки. За дорогу С Дохаловым благодарим инкогнитоГ.
Сэмпл: http://multi-up.com/1177382
Качество видео: BDRip (Исходник BDRemux 1080p)
Формат видео: AVI
Видео: XviD 73, 720x400, (16:9), 23,976 fps, 1994 Кбит/с, 8 бит, 0.29 bit/pixel
Аудио: Русский (АС3, 6 ch (Front: L C R, Side: L R, LFE), 48,0 KHz, 384 Kbps) Василий Горчаков
Аудио 2: Русский (АС3, 6 ch (Front: L C R, Side: L R, LFE), 48,0 KHz, 448 Kbps) Вартан Дохалов (отдельно)

MediaInfo

Общее
Полное имя : D:\Видеофильмы\В и д е о\Кобра (боевик, триллер, кримнал 1986 год).avi
Формат : AVI
Формат/Информация : Audio Video Interleave
Размер файла : 1,45 Гбайт
Продолжительность : 1 ч. 27 м.
Общий поток : 2388 Кбит/сек
Программа кодирования : VirtualDubMod 1.5.10.3 | www.virtualdub-fr.org || (build 2550/release)
Библиотека кодирования : VirtualDubMod build 2550/release
Видео
Идентификатор : 0
Формат : MPEG-4 Visual
Профиль формата : Advanced [email protected]
Параметр BVOP формата : 2
Параметр QPel формата : Нет
Параметр GMC формата : Без точки перехода
Параметр матрицы формата : Выборочная
Идентификатор кодека : XVID
Идентификатор кодека/Подсказка : XviD
Продолжительность : 1 ч. 27 м.
Битрейт : 1994 Кбит/сек
Ширина : 720 пикселей
Высота : 400 пикселей
Соотношение сторон : 16:9
Частота кадров : 23,976 (23976/1000) кадра/сек
Цветовое пространство : YUV
Субдискретизация насыщенности : 4:2:0
Битовая глубина : 8 бит
Тип развёртки : Прогрессивная
Метод сжатия : С потерями
Бит/(Пиксели*Кадры) : 0.289
Размер потока : 1,21 Гбайт (84%)
Библиотека кодирования : XviD 73
Аудио
Идентификатор : 1
Формат : AC-3
Формат/Информация : Audio Coding 3
Расширение режима : CM (complete main)
Параметр Endianness формата : Big
Идентификатор кодека : 2000
Продолжительность : 1 ч. 27 м.
Вид битрейта : Постоянный
Битрейт : 384 Кбит/сек
Каналы : 6 каналов
Расположение каналов : Front: L C R, Side: L R, LFE
Частота : 48,0 КГц
Частота кадров : 31,250 кадров/сек (1536 spf)
Метод сжатия : С потерями
Размер потока : 239 Мбайт (16%)
Выравнивание : Разделение по промежуткам
Продолжительность промежутка : 42 мс. (1,00 видеокадр)
Время предзагрузки промежутка : 500 мс.

Скриншот c названием фильма

Скриншоты

If your ratio falls below 0.3, you will not be able to download Torrents! More about the rating.

[erzsebet.pl].t592.torrent
Torrent: Registered [ 2017-12-02 17:13 ] · 2BD22E7BEB606CA1A1A7898500BD0182F4DBB7D6

Download .torrent

Download

18 KB

Status: checked
Completed: 16 times
Size: 1.72 GB
terms.php
[Profile] [PM]
Display posts:    
Reply to topic

Current time is: 27-Jan 13:43

All times are UTC ± 0



You cannot post new topics in this forum
You cannot reply to topics in this forum
You cannot edit your posts in this forum
You cannot delete your posts in this forum
You cannot vote in polls in this forum
You cannot attach files in this forum
You can download files in this forum