Вечера / De avonden / Evenings (Рудольф ван ден Берг / Rudolf van den Berg) [1989, Нидерланды, драма, биография, DVDRip] VO (Кошкин)

Reply to topic
DL-List and Torrent activity
Size:  1.41 GB   |    Registered:  3 years 1 month   |    Completed:  16 times

Seeder not seen: Never

 
   
 
 
Author Message

erzsebet.org ®

Longevity: 3 years 1 month

Posts: 47596

Post 02-Dec-2017 17:13

[Quote]

ВечераDe avonden / Evenings Страна: Нидерланды
Жанр: драма, биография
Год выпуска: 1989
Продолжительность: 01:55:39-Перевод: Одноголосый закадровый Василий Кошкин
Субтитры: нет-Режиссер: Рудольф ван ден Берг / Rudolf van den Berg
В ролях: Том Хоффман, Рейк де Гойер, Вивиан де Мюйнк, Пьер Бокма, Йобст Шниббе, Гийс Шолтен ван Ашат-Описание:
Загадочное, странное и довольно необычное, неоднозначное восприятие мира неким парнем по имени Фриц.
1946 год, Рождество. Мы тайно следуем за офисным клерком Фрицем ван Эгтерсом во время его познавательных и в то же время предприимчивых визитов к друзьям и подругам. В то же время это его ужасно тяготит. Фриц убежден, что он более чем достоин красивой жизни, нежели чем все остальные. Для него всё это должно быть более чем реальным. Несколько потерянный молодой человек, ему лишь немного за двадцать. Находясь всё время в одиночестве у себя дома, он пытается как-то самореализоваться в своей жизни, по-своему ставит цели, по его мнению, ведущие его к взрослению и познанию жизни, но всё это выглядит довольно грустно.-Сэмпл-Качество видео: DVDRip
Формат видео: AVI
Видео: 688x448 (1.54:1), 25 fps, XviD Final 1.1 (build 41) ~1549 kbps avg, 0.20 bit/pixel
Аудио: 48 kHz, AC3 Dolby Digital, 2/0 (L,R) ch, ~192 kbps

MediaInfo

General
Complete name : G:\De.Avonden.Koshkin.avi
Format : AVI
Format/Info : Audio Video Interleave
File size : 1.41 GiB
Duration : 1h 55mn
Overall bit rate : 1 752 Kbps
Writing application : VirtualDubMod 1.5.10.2 (build 2540/release)
Writing library : VirtualDubMod build 2540/release
Video
ID : 0
Format : MPEG-4 Visual
Format profile : Advanced [email protected]
Format settings, BVOP : 2
Format settings, QPel : No
Format settings, GMC : No warppoints
Format settings, Matrix : Default (H.263)
Codec ID : XVID
Codec ID/Hint : XviD
Duration : 1h 55mn
Bit rate : 1 550 Kbps
Width : 688 pixels
Height : 448 pixels
Display aspect ratio : 3:2
Frame rate : 25.000 fps
Color space : YUV
Chroma subsampling : 4:2:0
Bit depth : 8 bits
Scan type : Progressive
Compression mode : Lossy
Bits/(Pixel*Frame) : 0.201
Stream size : 1.25 GiB (88%)
Writing library : XviD 1.1.0 (UTC 2005-11-22)
Audio
ID : 1
Format : AC-3
Format/Info : Audio Coding 3
Mode extension : CM (complete main)
Format settings, Endianness : Big
Codec ID : 2000
Duration : 1h 55mn
Bit rate mode : Constant
Bit rate : 192 Kbps
Channel(s) : 2 channels
Channel positions : Front: L R
Sampling rate : 48.0 KHz
Bit depth : 16 bits
Compression mode : Lossy
Stream size : 159 MiB (11%)
Alignment : Split accross interleaves
Interleave, duration : 40 ms (1.00 video frame)
Interleave, preload duration : 500 ms

Скриншот c названием фильма

Скриншоты

If your ratio falls below 0.3, you will not be able to download Torrents! More about the rating.

[erzsebet.pl].t594.torrent
Torrent: Registered [ 2017-12-02 17:13 ] · 6A52FC4ECC797A97CFE71B07117F7A7BD0A82A0A

Download .torrent

Download

15 KB

Status: checked
Completed: 16 times
Size: 1.41 GB
terms.php
[Profile] [PM]
Display posts:    
Reply to topic

Current time is: 26-Jan 08:04

All times are UTC ± 0



You cannot post new topics in this forum
You cannot reply to topics in this forum
You cannot edit your posts in this forum
You cannot delete your posts in this forum
You cannot vote in polls in this forum
You cannot attach files in this forum
You can download files in this forum