Мальчик уходит / Вольная птица / Момчето си отива (Людмил Кирков / Lyudmil Kirkov) [1972, Болгария, драма, DVDRip] MVO (студия "Кондор") + Original

Reply to topic
DL-List and Torrent activity
Size:  1.46 GB   |    Registered:  3 years 1 month   |    Completed:  16 times

Seeder not seen: Never

 
   
 
 
Author Message

erzsebet.org ®

Longevity: 3 years 1 month

Posts: 47596

Post 02-Dec-2017 17:13

[Quote]

Мальчик уходит / Вольная птица / Момчето си отива
Страна: Болгария
Жанр: драма
Год выпуска: 1972
Продолжительность: 01:32:02
Перевод: Профессиональный (многоголосый закадровый) студия "Кондор" по заказу ВГТРК
Субтитры: нет
Оригинальная аудиодорожка: болгарский
Режиссер: Людмил Кирков / Lyudmil Kirkov
В ролях: Филип Трифонов, Николай Ламбрев, Михаил Ботевский, Валентин Гаджоков, Красимир Кацаров, Николай Атанасов, Невена Коканова, Александра Братанова, Катя Чукова, Христина Русева, Ефстати Стратев, Васил Попов, Елена Райнова, Кирил Господинов, Лили Енева, Васил Вачев, Златина Джамбазова, Цветана Гиргинова, Асен Георгиев, Антон Карастоянов, Владимир Давчев, Ева Радичкова, Недялка Монеджикова, Никола Тодев
Описание: Действие в фильме происходит в последние дни перед выпускным балом в одном из классов училища в маленьком провинциальном городе. Рангел, одна из одноклассниц называет его Раном, интеллигентный ученик, проявляющий интерес к журналистике, вопреки неодобряющим его родителям. Ран испытывает увлечение к Тинке — продавщице ближайшего кафетерия и не замечает, что Мариана — его одноклассница, влюблена в него. Тем временем в городе выступает известная певица Нели Йорданова, с которой Ран флиртует. Ночь на балу закончена и Ран провожает Мариану до дома. И становится ясно, что оба поедут учиться в Софию.
Сэмпл: http://multi-up.com/1176791
Качество видео: DVDRip
Формат видео: AVI
Видео: MPEG4, XviD, 688x432 (1.593), 25.000 fps, 1 836 Kbps (0.247 bit/pixel)
Аудио: AC-3, 48.0 KHz, 2 ch, 192 Kbps, CBR - русский
Аудио 2: AC-3, 48.0 KHz, 2 ch, 224 Kbps, CBR - болгарский

MediaInfo

Общее
Полное имя : M:\Мальчик уходит.avi
Формат : AVI
Формат/Информация : Audio Video Interleave
Размер файла : 1,46 Гбайт
Продолжительность : 1 ч. 32 м.
Общий поток : 2267 Кбит/сек
Название фильма : Мальчик уходит / Вольная птица / Момчето си отива (1972)
Программа кодирования : VirtualDubMod 1.5.10.2 (build 2540/release)
Библиотека кодирования : VirtualDubMod build 2540/release
Авторское право : miha2154
Видео
Идентификатор : 0
Формат : MPEG-4 Visual
Профиль формата : Advanced [email protected]
Параметр BVOP формата : 1
Параметр QPel формата : Нет
Параметр GMC формата : Без точки перехода
Параметр матрицы формата : Выборочная
Идентификатор кодека : XVID
Идентификатор кодека/Подсказка : XviD
Продолжительность : 1 ч. 32 м.
Битрейт : 1836 Кбит/сек
Ширина : 688 пикселей
Высота : 432 пикселя
Соотношение сторон : 16:10
Частота кадров : 25,000 кадров/сек
Цветовое пространство : YUV
Субдискретизация насыщенности : 4:2:0
Битовая глубина : 8 бит
Тип развёртки : Прогрессивная
Метод сжатия : С потерями
Бит/(Пиксели*Кадры) : 0.247
Размер потока : 1,18 Гбайт (81%)
Библиотека кодирования : XviD 65
Аудио #1
Идентификатор : 1
Формат : AC-3
Формат/Информация : Audio Coding 3
Расширение режима : CM (complete main)
Параметр Endianness формата : Big
Идентификатор кодека : 2000
Продолжительность : 1 ч. 32 м.
Вид битрейта : Постоянный
Битрейт : 192 Кбит/сек
Каналы : 2 канала
Расположение каналов : Front: L R
Частота : 48,0 КГц
Частота кадров : 31,250 кадров/сек (1536 spf)
Метод сжатия : С потерями
Размер потока : 126 Мбайт (8%)
Выравнивание : Разделение по промежуткам
Продолжительность промежутка : 40 мс. (1,00 видеокадр)
Время предзагрузки промежутка : 500 мс.
Заголовок : Профессиональный (многоголосый закадровый) Культура
Аудио #2
Идентификатор : 2
Формат : AC-3
Формат/Информация : Audio Coding 3
Расширение режима : CM (complete main)
Параметр Endianness формата : Big
Идентификатор кодека : 2000
Продолжительность : 1 ч. 32 м.
Вид битрейта : Постоянный
Битрейт : 224 Кбит/сек
Каналы : 2 канала
Расположение каналов : Front: L R
Частота : 48,0 КГц
Частота кадров : 31,250 кадров/сек (1536 spf)
Метод сжатия : С потерями
Размер потока : 147 Мбайт (10%)
Выравнивание : Разделение по промежуткам
Продолжительность промежутка : 40 мс. (1,00 видеокадр)
Время предзагрузки промежутка : 500 мс.
Заголовок : Болгарский

Скриншоты


If your ratio falls below 0.3, you will not be able to download Torrents! More about the rating.

[erzsebet.pl].t595.torrent
Torrent: Registered [ 2017-12-02 17:13 ] · 7B816C590BF7E4A0F53B340B44FA8D962888BB1A

Download .torrent

Download

15 KB

Status: checked
Completed: 16 times
Size: 1.46 GB
terms.php
[Profile] [PM]
Display posts:    
Reply to topic

Current time is: 17-Jan 02:10

All times are UTC ± 0



You cannot post new topics in this forum
You cannot reply to topics in this forum
You cannot edit your posts in this forum
You cannot delete your posts in this forum
You cannot vote in polls in this forum
You cannot attach files in this forum
You can download files in this forum