Ловкость / Sleight (Джастин Диллард / Justin Dillard) [2016, США, фантастика, боевик, триллер, драма, BDRip] MVO + Sub Rus, Eng + Original Eng

Reply to topic
DL-List and Torrent activity
Size:  2.05 GB   |    Registered:  3 years 1 month   |    Completed:  16 times

Seeder not seen: Never

 
   
 
 
Author Message

erzsebet.org ®

Longevity: 3 years 1 month

Posts: 47596

Post 02-Dec-2017 15:58

[Quote]

Ловкость / Sleight
Страна: США
Жанр: фантастика, боевик, триллер, драма
Год выпуска: 2016
Продолжительность: 01:29:16
Перевод: Профессиональный (многоголосый закадровый)
Субтитры: русские, английские
Оригинальная аудиодорожка: английский-Режиссер:
Джастин Диллард / Justin Dillard-В ролях:
Джейкоб Латимор, Сейшелл Гэбриел, Дьюли Хилл, Сторм Рейд, Сашир Замата, Майкл Виллар, Брэндон Джонсон, Камерон Эспозито, Эндрю Фицпатрик, Джей Уокер-Описание:
Молодой уличный фокусник Бо вынужден взять на себя заботу о младшей сестре после смерти матери. Парень отказывается от стипендии и вместо учёбы днём показывает фокусы на улице, а вечером продаёт наркотики. Он работает на Анджело, и когда на местный рынок без спроса выходит конкурирующая группировка, босс вынуждает Бо заняться не только продажей.-Качество видео: BDRip
Формат видео: AVI
Видео: 720x304 (2.37:1), 23.976 fps, XviD build 73 ~2384 kbps avg, 0.45 bit/pixel
Аудио: 48 kHz, AC3 Dolby Digital, 3/2 (L,C,R,l,r) + LFE ch, ~448 kbps | RUS
Аудио: 48 kHz, AC3 Dolby Digital, 3/2 (L,C,R,l,r) + LFE ch, ~448 kbps | ENG-Сэмпл-

MI

Код:Format : AVI
Format/Info : Audio Video Interleave
Format profile : OpenDML
File size : 2.05 GiB
Duration : 1 h 29 min
Overall bit rate : 3 287 kb/s
Writing application : VirtualDubMod 1.5.10.2 (build 2542/release)
Writing library : VirtualDubMod build 2542/release
Video
ID : 0
Format : MPEG-4 Visual
Format profile : Advanced [email protected]
Format settings : BVOP1 / Custom Matrix
Format settings, BVOP : 1
Format settings, QPel : No
Format settings, GMC : No warppoints
Format settings, Matrix : Custom
Codec ID : XVID
Codec ID/Hint : XviD
Duration : 1 h 29 min
Bit rate : 2 373 kb/s
Width : 720 pixels
Height : 304 pixels
Display aspect ratio : 2.35:1
Frame rate : 23.976 (24000/1001) FPS
Color space : YUV
Chroma subsampling : 4:2:0
Bit depth : 8 bits
Scan type : Progressive
Compression mode : Lossy
Bits/(Pixel*Frame) : 0.452
Stream size : 1.48 GiB (72%)
Writing library : XviD 73
Audio #1
ID : 1
Format : AC-3
Format/Info : Audio Coding 3
Format settings, Endianness : Big
Codec ID : 2000
Duration : 1 h 29 min
Bit rate mode : Constant
Bit rate : 448 kb/s
Channel(s) : 6 channels
Channel positions : Front: L C R, Side: L R, LFE
Sampling rate : 48.0 kHz
Frame rate : 31.250 FPS (1536 SPF)
Bit depth : 16 bits
Compression mode : Lossy
Stream size : 286 MiB (14%)
Alignment : Split accross interleaves
Interleave, duration : 42 ms (1.00 video frame)
Interleave, preload duratio : 500 ms
Service kind : Complete Main
Audio #2
ID : 2
Format : AC-3
Format/Info : Audio Coding 3
Format settings, Endianness : Big
Codec ID : 2000
Duration : 1 h 29 min
Bit rate mode : Constant
Bit rate : 448 kb/s
Channel(s) : 6 channels
Channel positions : Front: L C R, Side: L R, LFE
Sampling rate : 48.0 kHz
Frame rate : 31.250 FPS (1536 SPF)
Bit depth : 16 bits
Compression mode : Lossy
Stream size : 286 MiB (14%)
Alignment : Split accross interleaves
Interleave, duration : 42 ms (1.00 video frame)
Interleave, preload duratio : 500 ms
Service kind : Complete Main

Скриншоты

If your ratio falls below 0.3, you will not be able to download Torrents! More about the rating.

[erzsebet.pl].t6.torrent
Torrent: Registered [ 2017-12-02 15:58 ] · F99FC9E35CFF6F3F23CC69DE1C6BFAE80C7AD99F

Download .torrent

Download

11 KB

Status: checked
Completed: 16 times
Size: 2.05 GB
terms.php
[Profile] [PM]
Display posts:    
Reply to topic

Current time is: 20-Jan 23:23

All times are UTC ± 0



You cannot post new topics in this forum
You cannot reply to topics in this forum
You cannot edit your posts in this forum
You cannot delete your posts in this forum
You cannot vote in polls in this forum
You cannot attach files in this forum
You can download files in this forum