Дух золота / Duhul aurului (Дан Пица / Dan Pita, Мирча Верою / Mircea Veroiu) [1974, Румыния, драма, экранизация, VHSRip] (Марина Комарова) + Sub Rus

Reply to topic
DL-List and Torrent activity
Size:  1.24 GB   |    Registered:  3 years 1 month   |    Completed:  16 times

Seeder not seen: 3 years 1 month

 
   
 
 
Author Message

erzsebet.org ®

Longevity: 3 years 1 month

Posts: 47596

Post 02-Dec-2017 17:13

[Quote]

Дух золота / Duhul aurului
Страна: Румыния
Жанр: драма, экранизация
Год выпуска: 1974
Продолжительность: 01:28:27-Перевод: Субтитры (Марина Комарова)
Субтитры: русские
Оригинальная аудиодорожка: румынский-Режиссер: Дан Пица / Dan Pita, Мирча Верою / Mircea Veroiu-В ролях: Леополдина Бэлэнуцэ; Люсия Бога; Дора Иванчук; Элизабета Жар; Эрнест Мафтей; Александру Михай; Элиза Петрэкеску; Ливиу Розореа-Описание:
По новеллам Йона Агырбичану.
Фильм «Дух золота» - это продолжение более раннего «Каменная свадьба» (1973). Он так же состоит из двух связанных между собой историй, которые произошли в небольшом городке вблизи золотого рудника. Каждая из историй имеет одну и ту же тему: все жители и гости городка одержимы духом золота, которое приносит лишь горе и страдания.
Первая часть "Мирза" рассказывает о молодом парне, который рискуя своей жизнью, становится золотым вором. На преступление его толкнула вечная нищета. Влюбившись в дочку хозяйки паба, он готов на что угодно, лишь бы заполучить ее руку и сердце. Но мать девушки запросила слишком большую цену.
Во второй части "Сундук", старик по имени Клементе становится вдовцом уже не в первый раз. Ходят слухи, что у него несметные богатства – целый сундук золота. Девушки стараются не упустить такого завидного жениха, но после свадьбы все как одна, оставляют мужа и уходят в мир иной.-Качество видео: VHSRip
Формат видео: AVI
Видео: 672x512 (1.31:1), 25 fps, XviD build 50 ~1611 kbps avg, 0.19 bit/pixel
Аудио: 48 kHz, AC3 Dolby Digital, 2/0 (L,R) ch, ~384.00 kbps avg
Формат субтитров: softsub (SRT)

MediaInfo

Format : AVI
Format/Info : Audio Video Interleave
File size : 1.24 GiB
Duration : 1h 28mn
Overall bit rate : 2 002 Kbps
Writing application : VirtualDubMod 1.5.4.1 (build 2178/release)
Writing library : VirtualDubMod build 2178/release
Video
ID : 0
Format : MPEG-4 Visual
Format profile : Advanced [email protected]
Format settings, BVOP : 1
Format settings, QPel : No
Format settings, GMC : No warppoints
Format settings, Matrix : Custom
Codec ID : XVID
Codec ID/Hint : XviD
Duration : 1h 28mn
Bit rate : 1 612 Kbps
Width : 672 pixels
Height : 512 pixels
Display aspect ratio : 4:3
Frame rate : 25.000 fps
Color space : YUV
Chroma subsampling : 4:2:0
Bit depth : 8 bits
Scan type : Progressive
Compression mode : Lossy
Bits/(Pixel*Frame) : 0.187
Stream size : 1 020 MiB (80%)
Writing library : XviD 1.2.1 (UTC 2008-12-04)
Audio
ID : 1
Format : AC-3
Format/Info : Audio Coding 3
Mode extension : CM (complete main)
Codec ID : 2000
Duration : 1h 28mn
Bit rate mode : Constant
Bit rate : 384 Kbps
Channel(s) : 2 channels
Channel positions : Front: L R
Sampling rate : 48.0 KHz
Bit depth : 16 bits
Compression mode : Lossy
Stream size : 243 MiB (19%)
Alignment : Split accross interleaves
Interleave, duration : 96 ms (2.40 video frames)
Interleave, preload duration : 96 ms

Скриншот c названием фильма

Скриншоты

Фрагмент субтитров

73
00:15:56,800 --> 00:16:00,560
Мирза... Василе Мирза.
74
00:16:00,880 --> 00:16:05,320
Ладно, иди, пей свое бренди.
75
00:17:25,000 --> 00:17:27,640
Что это?
76
00:17:32,880 --> 00:17:35,480
Он был сильным мальчиком.
77
00:17:35,760 --> 00:17:41,600
Ты слабый, но умный.
78
00:17:42,720 --> 00:17:46,040
Ты много говоришь.
79
00:17:46,520 --> 00:17:48,560
Выйди.
80
00:18:09,560 --> 00:18:14,160
Ты больше не боишься меня.
81
00:18:14,640 --> 00:18:18,600
Не забывай что ты должен это схоронить.
82
00:18:22,000 --> 00:18:26,680
В следующий раз я не спасу тебя от расстрела.
83
00:18:27,120 --> 00:18:29,840
- Как это было?
- Трудно.
84
00:18:30,080 --> 00:18:33,120
Они чуть не убили меня.
85
00:18:33,840 --> 00:18:37,320
Не жалуйся, делай свое дело!
86
00:18:38,360 --> 00:18:40,640
Давай посмотрим...
87
00:18:44,480 --> 00:18:47,760
Он был хороший парень, но дурак...
88
00:18:48,000 --> 00:18:51,400
Она не любила его. Здесь его золото.
89
00:18:51,640 --> 00:18:55,360
Вы бы лучше женили его на вашей дочери,
90
00:18:55,600 --> 00:18:59,000
и положили конец этому.
91
00:18:59,520 --> 00:19:03,400
На моей дочери? И отдать приданое
одному из них?
92
00:19:03,720 --> 00:19:07,200
Я отдам ее за Виена.
93
00:19:07,200 --> 00:19:09,560
Не лезь не в свое дело!
94
00:19:10,000 --> 00:19:12,600
Занимайся своим делом.
95
00:19:12,960 --> 00:19:16,120
Это не мое дело.
96
00:21:04,120 --> 00:21:07,360
Золота нет?
97
00:21:08,800 --> 00:21:11,320
Я не смог найти.
98
00:21:11,680 --> 00:21:15,160
Наверно я не знаю где нужно искать.
99
00:21:15,440 --> 00:21:18,360
Если бы люди научились как лорды царствовать..
На других ресурсах раздавать запрещено релизёром (в т.ч. переконвертированные версии [pdf и др.])

If your ratio falls below 0.3, you will not be able to download Torrents! More about the rating.

[erzsebet.pl].t600.torrent
Torrent: Registered [ 2017-12-02 17:13 ] · 07F77148B85124E4B2518CD99968C70A9C5C66CE

Download .torrent

Download

13 KB

Status: checked
Completed: 16 times
Size: 1.24 GB
terms.php
[Profile] [PM]
Display posts:    
Reply to topic

Current time is: 17-Jan 03:27

All times are UTC ± 0



You cannot post new topics in this forum
You cannot reply to topics in this forum
You cannot edit your posts in this forum
You cannot delete your posts in this forum
You cannot vote in polls in this forum
You cannot attach files in this forum
You can download files in this forum