Плохие гены / If... Dog... Rabbit / One Last Score (Мэтью Модайн / Matthew Modine) [1999, США, драма, триллер, криминал, DVDRip] MVO

Reply to topic
DL-List and Torrent activity
Size:  1.46 GB   |    Registered:  3 years 1 month   |    Completed:  16 times

Seeder not seen: Never

 
   
 
 
Author Message

erzsebet.org ®

Longevity: 3 years 1 month

Posts: 47596

Post 02-Dec-2017 17:15

[Quote]

Плохие гены / If... Dog... Rabbit / One Last Score
Страна: США
Жанр: драма, триллер, криминал
Год выпуска: 1999
Продолжительность: 01:43:45
Перевод: Профессиональный (многоголосый закадровый)
Субтитры: нет
Режиссер: Мэтью Модайн / Matthew Modine
В ролях: Мэттью Модайн, Дэвид Кит, Джон Хёрт, Мэгги Уэтерли, Брюс Дерн, Джо Д’Анджерио, Кевин Дж. О’Коннор, Лиза Мари, Роджер Ла Пейдж, Зак Тиген

Описание: Отсидев срок за ограбление Джонни Купер намерен на воле вести честную жизнь. Он не надеется на помощь родни, ведь эта банда мелких воров и уголовников уже не раз подставляла его. Работая на заправке, независимый Джонни чувствует, что у него есть будущее, но однажды его навещает нежданный гость — отвязный братец Джейми, лихой спец по крутым неприятностям. Джонни не хочет иметь ничего общего с криминальными намерениями своей семьи, но он уже догадывается, что плохие гены не позволят ему забыть о прошлом.
Качество видео: DVDRip
Формат видео: AVI
Видео: 624x480 (1.30:1), 25 fps, XviD build 73 ~1615 kbps avg, 0.22 bit/pixel
Аудио: 48 kHz, AC3 Dolby Digital, 3/2 (L,C,R,l,r) + LFE ch, ~384 kbps

MediaInfo

Общее
Полное имя : H:\If.Dog.Rabbit.1999.dvdrip_[1.46]_[teko].avi
Формат : AVI
Формат/Информация : Audio Video Interleave
Размер файла : 1,46 Гбайт
Продолжительность : 1 ч. 43 м.
Общий поток : 2009 Кбит/сек
Программа кодирования : VirtualDubMod 1.5.10.3 | www.virtualdub-fr.org || (build 2550/release)
Библиотека кодирования : VirtualDubMod build 2550/release
Видео
Идентификатор : 0
Формат : MPEG-4 Visual
Профиль формата : Advanced [email protected]
Параметр BVOP формата : 2
Параметр QPel формата : Нет
Параметр GMC формата : Без точки перехода
Параметр матрицы формата : Выборочная
Идентификатор кодека : XVID
Идентификатор кодека/Подсказка : XviD
Продолжительность : 1 ч. 43 м.
Битрейт : 1616 Кбит/сек
Ширина : 624 пикселя
Высота : 480 пикселей
Соотношение сторон : 4:3
Частота кадров : 25,000 кадров/сек
Цветовое пространство : YUV
Субдискретизация насыщенности : 4:2:0
Битовая глубина : 8 бит
Тип развёртки : Прогрессивная
Метод сжатия : С потерями
Бит/(Пиксели*Кадры) : 0.216
Размер потока : 1,17 Гбайт (80%)
Библиотека кодирования : XviD 73
Аудио
Идентификатор : 1
Формат : AC-3
Формат/Информация : Audio Coding 3
Расширение режима : CM (complete main)
Параметр Endianness формата : Big
Идентификатор кодека : 2000
Продолжительность : 1 ч. 43 м.
Вид битрейта : Постоянный
Битрейт : 384 Кбит/сек
Каналы : 6 каналов
Расположение каналов : Front: L C R, Side: L R, LFE
Частота : 48,0 КГц
Битовая глубина : 16 бит
Метод сжатия : С потерями
Размер потока : 285 Мбайт (19%)
Выравнивание : Разделение по промежуткам
Продолжительность промежутка : 40 мс. (1,00 видеокадр)
Время предзагрузки промежутка : 500 мс.
Релиз группы:
--

If your ratio falls below 0.3, you will not be able to download Torrents! More about the rating.

[erzsebet.pl].t602.torrent
Torrent: Registered [ 2017-12-02 17:15 ] · E044266CF4124DE31812DF7651C5C4EBC5E2F19F

Download .torrent

Download

15 KB

Status: checked
Completed: 16 times
Size: 1.46 GB
terms.php
[Profile] [PM]
Display posts:    
Reply to topic

Current time is: 17-Jan 02:37

All times are UTC ± 0



You cannot post new topics in this forum
You cannot reply to topics in this forum
You cannot edit your posts in this forum
You cannot delete your posts in this forum
You cannot vote in polls in this forum
You cannot attach files in this forum
You can download files in this forum