Коррупция / Across the Killing Bay (Эммет Олстон / Emmett Alston) [1990, США, Боевик, триллер, детектив, VHSRip] AVO (Юрий Сербин.)

Reply to topic
DL-List and Torrent activity
Size:  1.37 GB   |    Registered:  3 years 1 month   |    Completed:  16 times

Seeder not seen: Never

 
   
 
 
Author Message

erzsebet.org ®

Longevity: 3 years 1 month

Posts: 47596

Post 02-Dec-2017 17:13

[Quote]

Коррупция / Across the Killing Bay
Страна: США
Жанр: Боевик, триллер, детектив
Год выпуска: 1990
Продолжительность: 01:29:34
Перевод: Авторский (одноголосый закадровый) Юрий Сербин.
Субтитры: нет
Режиссер: Эммет Олстон / Emmett Alston
В ролях: Phil Cheney
Alex Bennett
Dido Dela Paz
Bon Vibar
Marissa Bunag
Paul Holme
Описание: Действие фильма происходит в городе Манила, куда из Интерпола прибывают два агента: Хастингс и его помощник Гранд Купер. Именно здесь им придется лицом к лицу столкнутся с наркомафией, чтобы пресечь наркотрафик в Европу и Западные страны.
Доп. информация: За оцифровку и предоставление для релиза на рутрекере большое спасибо RITONIS
Релиз
Сэмпл: https://yadi.sk/i/Qnuauq243PhNYW
Качество видео: VHSRip
Формат видео: AVI
Видео: 704x528 (1.33:1), 25 fps, XviD build 73 ~1981 kbps avg, 0.21 bit/pixel
Аудио: 48 kHz, AC3 Dolby Digital, 2/0 (L,R) ch, ~192 kbps

MediaInfo

Коррупция - Across the Killing Bay (by RITONIS).avi
Format : AVI
Format/Info : Audio Video Interleave
File size : 1.37 GiB
Duration : 1 h 29 min
Overall bit rate : 2 183 kb/s
Movie name : Коррупция - Across the Killing Bay (by RITONIS)
Director : by RITONS
Writing application : VirtualDubMod 1.5.10.3 | www.virtualdub-fr.org || (build 2550/release)
Copyright : Edich2
Comment : erzsebet.org
Video
ID : 0
Format : MPEG-4 Visual
Format profile : Advanced [email protected]
Format settings, BVOP : 2
Format settings, QPel : No
Format settings, GMC : No warppoints
Format settings, Matrix : Custom
Codec ID : XVID
Codec ID/Hint : XviD
Duration : 1 h 29 min
Bit rate : 1 981 kb/s
Width : 704 pixels
Height : 528 pixels
Display aspect ratio : 4:3
Frame rate : 25.000 FPS
Color space : YUV
Chroma subsampling : 4:2:0
Bit depth : 8 bits
Scan type : Progressive
Compression mode : Lossy
Bits/(Pixel*Frame) : 0.213
Stream size : 1.24 GiB (91%)
Writing library : XviD 73
Audio
ID : 1
Format : AC-3
Format/Info : Audio Coding 3
Format settings, Endianness : Big
Codec ID : 2000
Duration : 1 h 29 min
Bit rate mode : Constant
Bit rate : 192 kb/s
Channel(s) : 2 channels
Channel positions : Front: L R
Sampling rate : 48.0 kHz
Frame rate : 31.250 FPS (1536 spf)
Bit depth : 16 bits
Compression mode : Lossy
Stream size : 123 MiB (9%)
Alignment : Split accross interleaves
Interleave, duration : 40 ms (1.00 video frame)
Interleave, preload duratio : 500 ms
Service kind : Complete Main

Скриншоты


If your ratio falls below 0.3, you will not be able to download Torrents! More about the rating.

[erzsebet.pl].t603.torrent
Torrent: Registered [ 2017-12-02 17:13 ] · C4033E5B08ACFC9B12E4EBA86E094E6A71BD7FF8

Download .torrent

Download

14 KB

Status: checked
Completed: 16 times
Size: 1.37 GB
terms.php
[Profile] [PM]
Display posts:    
Reply to topic

Current time is: 28-Jan 07:30

All times are UTC ± 0



You cannot post new topics in this forum
You cannot reply to topics in this forum
You cannot edit your posts in this forum
You cannot delete your posts in this forum
You cannot vote in polls in this forum
You cannot attach files in this forum
You can download files in this forum