Змей и радуга / Змея и радуга / The Serpent and the Rainbow (Уэс Крэйвен / Wes Craven) [1988, США, мистика, ужасы, BDRip] AVO (Андрей Гаврилов)

Reply to topic
DL-List and Torrent activity
Size:  1.4 GB   |    Registered:  3 years 1 month   |    Completed:  16 times

Seeder not seen: Never

 
   
 
 
Author Message

erzsebet.org ®

Longevity: 3 years 1 month

Posts: 47596

Post 02-Dec-2017 17:13

[Quote]

Змей и радуга / Змея и радуга / The Serpent and the Rainbow
Страна: США
Жанр: мистика, ужасы
Год выпуска: 1988
Продолжительность: 01:38:00
Перевод: Авторский (одноголосый закадровый) Андрей Гаврилов
Субтитры: нет
Режиссер: Уэс Крэйвен / Wes Craven
В ролях: Билл Пуллман, Кэти Тайсон, Зэйкс Мокэй, Пол Уинфилд, Брент Дженнингс, Конрад Робертс, Майкл Гаф, Тереза Мерритт, Пол Гилфойл
Описание: Ученый Деннис Алан отправляется на Гаити, родину магии Вуду. Он хочет изучить порошок, с помощью которого, согласно легендам, можно возвращать к жизни умерших людей. Деннис скептически относится к древним легендам, но, попав на Гаити, он узнает, что здесь практически все в это верят. Более того, Алан сталкивается на Гаити с древней наукой, которая понимает жизнь и смерть совершенно не так, как современная наука, и эта древняя наука говорит о возможности преодолеть смерть, причем эта наука не только теоретическая, и практиков на Гаити хватает…
Доп. информация: Выражаю огромную благодарность Нордеру за синхронизацию звуковой дорожки. За дорогу благодарим Синта Рурони.
Сэмпл: http://multi-up.com/1176248
Качество видео: BDRip (Исходник BDRemux 1080p)
Формат видео: AVI
Видео: XviD 73, 704x304, (2,35:1), 23,976 fps, 1836 Кбит/с, 8 бит, 0.28 bit/pixel
Аудио: Русский (АС3, 2 ch (Front: L R), 48,0 KHz, 192 Kbps)

MediaInfo

Общее
Полное имя : D:\Видеофильмы\В и д е о\Змей и радуга (мистика, триллер, ужасы 1988 год).avi
Формат : AVI
Формат/Информация : Audio Video Interleave
Размер файла : 1,40 Гбайт
Продолжительность : 1 ч. 38 м.
Общий поток : 2038 Кбит/сек
Программа кодирования : VirtualDubMod 1.5.10.2 (build 2540/release)
Библиотека кодирования : VirtualDubMod build 2540/release
Видео
Идентификатор : 0
Формат : MPEG-4 Visual
Профиль формата : Advanced [email protected]
Параметр BVOP формата : 2
Параметр QPel формата : Нет
Параметр GMC формата : Без точки перехода
Параметр матрицы формата : Выборочная
Идентификатор кодека : XVID
Идентификатор кодека/Подсказка : XviD
Продолжительность : 1 ч. 38 м.
Битрейт : 1836 Кбит/сек
Ширина : 704 пикселя
Высота : 384 пикселя
Соотношение сторон : 1,85:1
Частота кадров : 23,976 (23976/1000) кадра/сек
Цветовое пространство : YUV
Субдискретизация насыщенности : 4:2:0
Битовая глубина : 8 бит
Тип развёртки : Прогрессивная
Метод сжатия : С потерями
Бит/(Пиксели*Кадры) : 0.283
Размер потока : 1,26 Гбайт (90%)
Библиотека кодирования : XviD 73
Аудио
Идентификатор : 1
Формат : AC-3
Формат/Информация : Audio Coding 3
Расширение режима : CM (complete main)
Параметр Endianness формата : Big
Идентификатор кодека : 2000
Продолжительность : 1 ч. 38 м.
Вид битрейта : Постоянный
Битрейт : 192 Кбит/сек
Каналы : 2 канала
Расположение каналов : Front: L R
Частота : 48,0 КГц
Частота кадров : 31,250 кадров/сек (1536 spf)
Метод сжатия : С потерями
Размер потока : 135 Мбайт (9%)
Выравнивание : Разделение по промежуткам
Продолжительность промежутка : 42 мс. (1,00 видеокадр)
Время предзагрузки промежутка : 500 мс.

Скриншот c названием фильма

Скриншоты

If your ratio falls below 0.3, you will not be able to download Torrents! More about the rating.

[erzsebet.pl].t607.torrent
Torrent: Registered [ 2017-12-02 17:13 ] · 44F09AB8E7FC654DA5354F6D34AC28AAF871B81F

Download .torrent

Download

14 KB

Status: checked
Completed: 16 times
Size: 1.4 GB
terms.php
[Profile] [PM]
Display posts:    
Reply to topic

Current time is: 27-Jan 12:39

All times are UTC ± 0



You cannot post new topics in this forum
You cannot reply to topics in this forum
You cannot edit your posts in this forum
You cannot delete your posts in this forum
You cannot vote in polls in this forum
You cannot attach files in this forum
You can download files in this forum