Медвежатники / Safe Men (Джон Гамбург / John Hamburg) [1998, США, комедия, криминал, VHSRip] [Full Screen] MVO (Премьер)

Reply to topic
DL-List and Torrent activity
Size:  1.37 GB   |    Registered:  3 years 1 month   |    Completed:  16 times

Seeder not seen: Never

 
   
 
 
Author Message

erzsebet.org ®

Longevity: 3 years 1 month

Posts: 47596

Post 02-Dec-2017 17:15

[Quote]

Медвежатники / Safe Men
[Full Screen]
«Добро пожаловать в мир дезорганизации преступности»
Страна: США
Жанр: комедия, криминал
Год выпуска: 1998
Продолжительность: 01:23:58
Перевод: Профессиональный (многоголосый закадровый) Премьер
Субтитры: нет
Режиссер: Джон Гамбург / John Hamburg
В ролях: Сэм Рокуэлл /Sam Rockwell/, Стив Зан /Steve Zahn/, Марк Руффало /Mark Ruffalo/, Джош Пэйс /Josh Pais/, Пол Джаматти /Paul Giamatti/, Майкл Шмидт /Michael Schmidt/, Кристина Керк /Christina Kirk/, Рэймонд Серра /Raymond Serra/, Харви Фирстайн /Harvey Fierstein/, Майкл Лернер /Michael Lerner/
Описание: Двух молодых болванов-неудачников, пытающихся петь, принимает за знаменитых в преступном мире взломщиков, которых никто не знает в лицо, еще больший болван по кличке Форшмак, работающий на местного мафиози Берни по кличке Толстяк. Они, видите ли, зашли в бар с большой сумкой, подходящей для выноса добычи! Он уговаривает их забраться в дом престарелого маразматика, не знающего, сколько у него в сейфе денег, а тот оказывается гангстером Берни. Толстяк угрожает парням смертью и заставляет взламывать по его наводке сейфы. Но они об этой тонкой работе понятия не умеют. Выбора, однако, не было, пришлось согласиться и научиться преступному ремеслу. Ребята познакомились с настоящими взломщиками, а один из них даже полюбил дочь одной из жертв... (Иванов М.)
Доп. информация: Оцифровка лицензионной VHS (личный архив) и получение VHSRip alenavova
Эксклюзив для erzsebet.org. При размещении данного релиза на других сайтах ссылка на автора alenavova обязательна.
Релиз
Сэмпл: https://yadi.sk/i/XCKMHkAB3Q8PZv
Качество видео: VHSRip
Формат видео: AVI
Видео: 704x528 (1.33:1), 25 fps, XviD build 73 ~2128 kbps avg, 0.23 bit/pixel
Аудио: 48 kHz, AC3 Dolby Digital, 2/0 (L,R) ch, ~192 kbps

MediaInfo

Медвежатники - Safe Men (by alenavova).avi
Format : AVI
Format/Info : Audio Video Interleave
File size : 1.37 GiB
Duration : 1 h 23 min
Overall bit rate : 2 331 kb/s
Movie name : Медвежатники - Safe Men (by alenavova)
Director : by alenavova
Writing application : VirtualDubMod 1.5.10.3 | www.virtualdub-fr.org || (build 2550/release)
Copyright : Edich2
Comment : erzsebet.org
Video
ID : 0
Format : MPEG-4 Visual
Format profile : Advanced [email protected]
Format settings, BVOP : 2
Format settings, QPel : No
Format settings, GMC : No warppoints
Format settings, Matrix : Custom
Codec ID : XVID
Codec ID/Hint : XviD
Duration : 1 h 23 min
Bit rate : 2 129 kb/s
Width : 704 pixels
Height : 528 pixels
Display aspect ratio : 4:3
Frame rate : 25.000 FPS
Color space : YUV
Chroma subsampling : 4:2:0
Bit depth : 8 bits
Scan type : Progressive
Compression mode : Lossy
Bits/(Pixel*Frame) : 0.229
Stream size : 1.25 GiB (91%)
Writing library : XviD 73
Audio
ID : 1
Format : AC-3
Format/Info : Audio Coding 3
Format settings, Endianness : Big
Codec ID : 2000
Duration : 1 h 23 min
Bit rate mode : Constant
Bit rate : 192 kb/s
Channel(s) : 2 channels
Channel positions : Front: L R
Sampling rate : 48.0 kHz
Frame rate : 31.250 FPS (1536 spf)
Bit depth : 16 bits
Compression mode : Lossy
Stream size : 115 MiB (8%)
Alignment : Split accross interleaves
Interleave, duration : 40 ms (1.00 video frame)
Interleave, preload duratio : 500 ms
Service kind : Complete Main

Скриншоты


If your ratio falls below 0.3, you will not be able to download Torrents! More about the rating.

[erzsebet.pl].t608.torrent
Torrent: Registered [ 2017-12-02 17:15 ] · F1D905D3631735F6AAF08554D56598B23E6B3552

Download .torrent

Download

14 KB

Status: checked
Completed: 16 times
Size: 1.37 GB
terms.php
[Profile] [PM]
Display posts:    
Reply to topic

Current time is: 24-Jan 14:28

All times are UTC ± 0



You cannot post new topics in this forum
You cannot reply to topics in this forum
You cannot edit your posts in this forum
You cannot delete your posts in this forum
You cannot vote in polls in this forum
You cannot attach files in this forum
You can download files in this forum