Космический охотник: Приключения в запретной зоне / Spacehunter: Adventures in the Forbidden Zone (Лэмонт Джонсон / Lamont Johnson) [1983, Канада, США, фантастика, приключения, VHSRip] [Full Screen] AVO (Вартан Дохалов)

Reply to topic
DL-List and Torrent activity
Size:  1.37 GB   |    Registered:  3 years 1 month   |    Completed:  16 times

Seeder not seen: Never

 
   
 
 
Author Message

erzsebet.org ®

Longevity: 3 years 1 month

Posts: 47596

Post 02-Dec-2017 17:13

[Quote]

Космический охотник: Приключения в запретной зоне / Spacehunter: Adventures in the Forbidden Zone
[Full Screen]
«Journey with Wolff and Niki, an interstellar adventurer and young rebel. On a mission to rescue three stranded women from a planet no one has warned them about. Because no one has ever returned»
Страна: Канада, США
Жанр: фантастика, приключения
Год выпуска: 1983
Продолжительность: 01:29:40
Перевод: Авторский (одноголосый закадровый) Вартан Дохалов
Субтитры: нет
Режиссер: Лэмонт Джонсон / Lamont Johnson
В ролях: Питер Штраусс, Молли Рингуолд, Эрни Хадсон, Андреа Марковиччи, Майкл Айронсайд, Бисон Кэрролл, Хрант Альянак, Дебора Прэтт, Алейса Ширли, Кали Тимминс
Описание: Аннотация от alenavova
Ну почему будущее так часто выглядит совершенно неаппетитно? По космосу разгуливают разбитые и ободранные летающие корыта, населенные планеты заляпаны грязью, слизью и нечистотами и набиты подонками, а "очаровательное создание" можно разглядеть только основательно отмыв его от грязи и сажи... Одинокий космический бродяга с роботом женского (!) пола узнает о крушении звездолета и солидном гонораре за спасение трех пасажирок. Планета космических "робинзонок" закрыта на карантин (то ли из-за болезней, то ли из-за внешнего вида), имеющиеся человекообразные воюют и воняют, а мало-мальски организованная группа, естественно, держит в страхе всех остальных. Ну а наш "одинокий герой", не уступая в мужественности, скорострельности и привлекательности "иствудским" джентльменам, бросается в самую гущу. Очаровательная (после мытья) местная "Пятница" то ли помогает ему, то ли охотится за ним самим...
Доп. информация: Оцифровка VHS (личный архив) и получение VHSRip alenavova
Эксклюзив для erzsebet.org. При размещении данного релиза на других сайтах ссылка на автора alenavova обязательна.
Релиз
Сэмпл: https://yadi.sk/i/DegoRm8l3PbZEL
Качество видео: VHSRip
Формат видео: AVI
Видео: 704x528 (1.33:1), 25 fps, XviD build 73 ~1980 kbps avg, 0.21 bit/pixel
Аудио: 48 kHz, AC3 Dolby Digital, 2/0 (L,R) ch, ~192 kbps

MediaInfo

Космический охотник - Spacehunter [by alenavova].avi
Format : AVI
Format/Info : Audio Video Interleave
File size : 1.37 GiB
Duration : 1 h 29 min
Overall bit rate : 2 182 kb/s
Movie name : Космический охотник - Spacehunter [by alenavova]
Director : by alenavova
Writing application : VirtualDubMod 1.5.10.3 | www.virtualdub-fr.org || (build 2550/release)
Copyright : Edich2
Comment : erzsebet.org
Video
ID : 0
Format : MPEG-4 Visual
Format profile : Advanced [email protected]
Format settings, BVOP : 2
Format settings, QPel : No
Format settings, GMC : No warppoints
Format settings, Matrix : Custom
Codec ID : XVID
Codec ID/Hint : XviD
Duration : 1 h 29 min
Bit rate : 1 980 kb/s
Width : 704 pixels
Height : 528 pixels
Display aspect ratio : 4:3
Frame rate : 25.000 FPS
Color space : YUV
Chroma subsampling : 4:2:0
Bit depth : 8 bits
Scan type : Progressive
Compression mode : Lossy
Bits/(Pixel*Frame) : 0.213
Stream size : 1.24 GiB (91%)
Writing library : XviD 73
Audio
ID : 1
Format : AC-3
Format/Info : Audio Coding 3
Format settings, Endianness : Big
Codec ID : 2000
Duration : 1 h 29 min
Bit rate mode : Constant
Bit rate : 192 kb/s
Channel(s) : 2 channels
Channel positions : Front: L R
Sampling rate : 48.0 kHz
Frame rate : 31.250 FPS (1536 spf)
Bit depth : 16 bits
Compression mode : Lossy
Stream size : 123 MiB (9%)
Alignment : Split accross interleaves
Interleave, duration : 40 ms (1.00 video frame)
Interleave, preload duratio : 500 ms
Service kind : Complete Main

Скриншоты


If your ratio falls below 0.3, you will not be able to download Torrents! More about the rating.

[erzsebet.pl].t617.torrent
Torrent: Registered [ 2017-12-02 17:13 ] · 8207954B37FB5441CF6F0A3B5F6832446399D164

Download .torrent

Download

14 KB

Status: checked
Completed: 16 times
Size: 1.37 GB
terms.php
[Profile] [PM]
Display posts:    
Reply to topic

Current time is: 23-Jan 11:08

All times are UTC ± 0



You cannot post new topics in this forum
You cannot reply to topics in this forum
You cannot edit your posts in this forum
You cannot delete your posts in this forum
You cannot vote in polls in this forum
You cannot attach files in this forum
You can download files in this forum