Омен / The Omen (Ричард Доннер / Richard Donner) [1976, Великобритания, США, ужасы, триллер, BDRip] AVO (Гаврилов)

Reply to topic
DL-List and Torrent activity
Size:  1.45 GB   |    Registered:  3 years 1 month   |    Completed:  16 times

Seeder not seen: Never

 
   
 
 
Author Message

erzsebet.org ®

Longevity: 3 years 1 month

Posts: 47596

Post 02-Dec-2017 15:57

[Quote]

Омен / The Omen
Страна: США
Жанр: ужасы, триллер
Год выпуска: 1976
Продолжительность: 01:51:03
Перевод: Авторский (одноголосый закадровый) Андрей Гаврилов
Субтитры: нет
Оригинальная аудиодорожка: нет
Режиссер: Ричард Доннер / Richard Donner
В ролях: Грегори Пек, Ли Ремик, Дэвид Уорнер, Билли Уайтлоу, Харви Стивенс, Патрик Траутон, Мартин Бенсон, Роберт Ритти, Томми Дагган, Джон Страйд
Описание: Он был рожден в 6 часов 6-го дня 6-го месяца. Как предсказано в Книге Откровений, настанет Конец света, последнее противостояние сил добра и зла, и началом его будет рождение сына Сатаны в облике человеческом... У жены американского дипломата Роберта Торна рождается мертвый ребенок, и ее муж неспособный сообщить ей эту трагическую новость, усыновляет младенца с непонятным родимым пятном в виде трех шестерок – числа зверя. Подробности рождения ребенка остаются в секрете, но со временем становится ясно, что это необычный ребенок. Вокруг постоянно, при загадочных обстоятельствах, умирают люди и происходят таинственные события, после которых Роберт Торн начинает панически бояться усыновленного мальчика, за невинным ангельским лицом которого прячется безжалостная дьявольская сущность.
Доп. информация:
Релиз от
Рип от Menen - http://erzsebet.org/forum/viewtopic.php?t=3054465
Сэмпл
Качество видео: BDRip
Формат видео: AVI
Видео: XviD; 720x304 (2,35:1); 1471 Kbps; 23,976 fps; 0,280 bit/pixel
Аудио: AC3; 48 kHz, 384 Kbps; CBR; 6 ch

MediaInfo

Общее
Полное имя : Omen.1976.BDRip.Gavrilov.lumpeN.avi
Формат : AVI
Формат/Информация : Audio Video Interleave
Размер файла : 1,45 Гбайт
Продолжительность : 1 ч. 51 м.
Общий поток : 1864 Кбит/сек
Название фильма : lumpeN
Программа кодирования : VirtualDubMod 1.5.10.2 (build 2540/release)
Библиотека кодирования : VirtualDubMod build 2540/release
Видео
Идентификатор : 0
Формат : MPEG-4 Visual
Профиль формата : Advanced [email protected]
Настройки формата : BVOP1 / Custom Matrix
Параметр BVOP формата : 1
Параметр QPel формата : Нет
Параметр GMC формата : Без точки перехода
Параметр матрицы формата : Выборочная
Идентификатор кодека : XVID
Идентификатор кодека/Подсказка : XviD
Продолжительность : 1 ч. 51 м.
Битрейт : 1471 Кбит/сек
Ширина : 720 пикселей
Высота : 304 пикселя
Соотношение сторон : 2,35:1
Частота кадров : 23,976 (24000/1001) кадра/сек
Цветовое пространство : YUV
Субдискретизация насыщенности : 4:2:0
Битовая глубина : 8 бит
Тип развёртки : Прогрессивная
Метод сжатия : С потерями
Бит/(Пиксели*Кадры) : 0.280
Размер потока : 1,14 Гбайт (79%)
Библиотека кодирования : XviD 1.2.1 (UTC 2008-12-04)
Аудио
Идентификатор : 1
Формат : AC-3
Формат/Информация : Audio Coding 3
Идентификатор кодека : 2000
Продолжительность : 1 ч. 51 м.
Вид битрейта : Постоянный
Битрейт : 384 Кбит/сек
Каналы : 6 каналов
Расположение каналов : Front: L C R, Side: L R, LFE
Частота : 48,0 КГц
Частота кадров : 31,250 кадров/сек (1536 SPF)
Битовая глубина : 16 бит
Метод сжатия : С потерями
Размер потока : 305 Мбайт (21%)
Выравнивание : Разделение по промежуткам
Продолжительность промежутка : 42 мс. (1,00 видеокадр)
Время предзагрузки промежутка : 500 мс.
Заголовок : Gavrilov
ServiceKind/String : Complete Main

Скриншоты

If your ratio falls below 0.3, you will not be able to download Torrents! More about the rating.

[erzsebet.pl].t62.torrent
Torrent: Registered [ 2017-12-02 15:58 ] · CB56839FBDB69CDE163A8128A1C5432A1014B24A

Download .torrent

Download

15 KB

Status: checked
Completed: 16 times
Size: 1.45 GB
terms.php
[Profile] [PM]
Display posts:    
Reply to topic

Current time is: 20-Jan 06:15

All times are UTC ± 0



You cannot post new topics in this forum
You cannot reply to topics in this forum
You cannot edit your posts in this forum
You cannot delete your posts in this forum
You cannot vote in polls in this forum
You cannot attach files in this forum
You can download files in this forum