Голубая Лагуна / The Blue Lagoon (Рэндал Клайзер / Randal Kleiser) [1980, США, драма, мелодрама, приключения, VHSRip] VO (немец, неизвестный)

Reply to topic
DL-List and Torrent activity
Size:  1.37 GB   |    Registered:  3 years 1 month   |    Completed:  16 times

Seeder not seen: Never

 
   
 
 
Author Message

erzsebet.org ®

Longevity: 3 years 1 month

Posts: 47596

Post 02-Dec-2017 17:13

[Quote]

Голубая Лагуна / The Blue Lagoon
«Красивая история о любви...»
Страна: США
Жанр: драма, мелодрама, приключения
Год выпуска: 1980
Продолжительность: 01:40:34
Перевод: Одноголосый закадровый немец, неизвестный
Субтитры: нет
Режиссер: Рэндал Клайзер / Randal Kleiser
В ролях: Брук Шилдс (Emmeline), Кристофер Аткинс (Richard), Лео МакКерн (Paddy Button), Уильям Дэниелс (Arthur Lestrange), Элва Джозефсон (Young Emmeline), Гленн Коэн (Young Richard), Алан Хопгуд (Captain), Гас Мёркюрио (Officer), Джефри Клайзер (Lookout), Брэдли Прайс (Little Paddy)
Описание: Страшное кораблекрушение, счастливое спасение и необитаемый остров положили начало одной из самых красивых и трогательных историй о любви. Долгие годы юная пара живет на прекрасном тропическом острове. Но по мере того, как они взрослеют, в их сердцах зарождается возвышенная, красивая, как окружающий мир, любовь.
Доп. информация: Оцифровка собственной VHS от СашокSP и предоставление для рутрекера.
Релиз
Сэмпл: https://yadi.sk/i/18s5WS7I3PbPVo
Качество видео: VHSRip
Формат видео: AVI
Видео: 704x544 (1.29:1), 25 fps, XviD build 73 ~1743 kbps avg, 0.18 bit/pixel
Аудио: 48 kHz, AC3 Dolby Digital, 2/0 (L,R) ch, ~192 kbps

MediaInfo

Голубая лагуна - The Blue Lagoon [by СашокSP].avi
Format : AVI
Format/Info : Audio Video Interleave
File size : 1.37 GiB
Duration : 1 h 40 min
Overall bit rate : 1 946 kb/s
Movie name : Голубая лагуна - The Blue Lagoon [by СашокSP]
Director : by СашокSP
Writing application : VirtualDubMod 1.5.10.3 | www.virtualdub-fr.org || (build 2550/release)
Copyright : Edich2
Comment : erzsebet.org
Video
ID : 0
Format : MPEG-4 Visual
Format profile : Advanced [email protected]
Format settings, BVOP : 2
Format settings, QPel : No
Format settings, GMC : No warppoints
Format settings, Matrix : Custom
Codec ID : XVID
Codec ID/Hint : XviD
Duration : 1 h 40 min
Bit rate : 1 744 kb/s
Width : 704 pixels
Height : 544 pixels
Display aspect ratio : 1.294
Frame rate : 25.000 FPS
Color space : YUV
Chroma subsampling : 4:2:0
Bit depth : 8 bits
Scan type : Progressive
Compression mode : Lossy
Bits/(Pixel*Frame) : 0.182
Stream size : 1.23 GiB (90%)
Writing library : XviD 73
Audio
ID : 1
Format : AC-3
Format/Info : Audio Coding 3
Format settings, Endianness : Big
Codec ID : 2000
Duration : 1 h 40 min
Bit rate mode : Constant
Bit rate : 192 kb/s
Channel(s) : 2 channels
Channel positions : Front: L R
Sampling rate : 48.0 kHz
Frame rate : 31.250 FPS (1536 spf)
Bit depth : 16 bits
Compression mode : Lossy
Stream size : 138 MiB (10%)
Alignment : Split accross interleaves
Interleave, duration : 40 ms (1.00 video frame)
Interleave, preload duratio : 500 ms
Service kind : Complete Main

Скриншоты


If your ratio falls below 0.3, you will not be able to download Torrents! More about the rating.

[erzsebet.pl].t620.torrent
Torrent: Registered [ 2017-12-02 17:13 ] · 1FDDA44B6CAA08BFFD6DABF9ECF7DCB286D791E0

Download .torrent

Download

14 KB

Status: checked
Completed: 16 times
Size: 1.37 GB
terms.php
[Profile] [PM]
Display posts:    
Reply to topic

Current time is: 27-Jan 13:20

All times are UTC ± 0



You cannot post new topics in this forum
You cannot reply to topics in this forum
You cannot edit your posts in this forum
You cannot delete your posts in this forum
You cannot vote in polls in this forum
You cannot attach files in this forum
You can download files in this forum