Саламандра / The Salamander (Питер Зиннер / Peter Zinner) [1981, США, Великобритания, Италия, драма, детектив, триллер, HDRip] MVO

Reply to topic
DL-List and Torrent activity
Size:  1.45 GB   |    Registered:  3 years 1 month   |    Completed:  16 times

Seeder not seen: Never

 
   
 
 
Author Message

erzsebet.org ®

Longevity: 3 years 1 month

Posts: 47596

Post 02-Dec-2017 17:13

[Quote]

Саламандра / The Salamander
Страна: США, Великобритания, Италия
Жанр: драма, детектив, триллер
Год выпуска: 1981
Продолжительность: 01:41:25
Перевод: Профессиональный (многоголосый закадровый) - Интра-Коммуникейшнс по заказу телеканала "100-ТВ"
Субтитры: нет
Оригинальная аудиодорожка: нет
Режиссер: Питер Зиннер / Peter Zinner
В ролях: Франко Неро, Энтони Куинн, Мартин Болсам, Сибил Даннинг, Кристофер Ли, Кливон Литтл, Пол Л. Смит, Джон Стайнер, Клаудия Кардинале, Илай Уоллак, Ренцо Пальмер, Анита Стриндберг, Марино Мазе, Жак Эрлен, Фортунато Арена, Джон Стэйси, Андреа Эстерхази, Массимо Чипрари, Ларри Долгин, Тони Брандт, Аттилио Доттезио, Том Феллеги, Альфонсо Джиганти, Маргерита Хоровиц, Гитте Ли, Нелло Паццафини, Амедео Шаламон
Описание: По роману Мориса Уэста, навеянному одиозным скандалом конца 70-х, когда масонская ложа П-2, руководимая проходимцем-сатанистом Личо Джелли, едва не устроила в Италии натуральный государственный переворот.
Расследуя дело об убийстве высокопоставленного генерала, полковник полиции Данте Маттуччи выясняет, что покойный был связан с итальянскими неофашисткими группировками. Неожиданно для Матуччи дело об убийстве засекречивают. Тогда он начинает собственное расследование. В этом ему берется помочь миллиардер Бруно Манцини. В ходе расследования выясняется, что в Италии существует мощная военно-фашистская организация, связанная с международной мафией и собирающаяся совершить в стране политический переворот...
Доп. информация: Рип, сделанный с этого исходника - http://erzsebet.org/forum/viewtopic.php?t=5477469, скачан с кинозала у пользователя Kоenig.
Сэмпл: http://multi-up.com/1177046
Качество видео: HDRip
Формат видео: AVI
Видео: 1846 Кбит/сек, 720*400 (16:9), 23,976 кадра/сек, XviD
Аудио: Русский, 192 Кбит/сек, 48,0 КГц, 16 бит, 2 канала, AC-3

MediaInfo

Общее
Полное имя : I:\MONAR\Художественные фильмы\Зарубежное кино\Саламандра (1981).avi
Формат : AVI
Формат/Информация : Audio Video Interleave
Размер файла : 1,45 Гбайт
Продолжительность : 1 ч. 41 м.
Общий поток : 2047 Кбит/сек
Программа кодирования : VirtualDubMod 1.5.10.2 (build 2540/release)
Библиотека кодирования : VirtualDubMod build 2540/release
Видео
Идентификатор : 0
Формат : MPEG-4 Visual
Профиль формата : Advanced [email protected]
Настройки формата : BVOP1 / Custom Matrix
Параметр BVOP формата : 1
Параметр QPel формата : Нет
Параметр GMC формата : Без точки перехода
Параметр матрицы формата : Выборочная
Идентификатор кодека : XVID
Идентификатор кодека/Подсказка : XviD
Продолжительность : 1 ч. 41 м.
Битрейт : 1846 Кбит/сек
Ширина : 720 пикселей
Высота : 400 пикселей
Соотношение сторон : 16:9
Частота кадров : 23,976 (24000/1001) кадра/сек
Цветовое пространство : YUV
Субдискретизация насыщенности : 4:2:0
Битовая глубина : 8 бит
Тип развёртки : Прогрессивная
Метод сжатия : С потерями
Бит/(Пиксели*Кадры) : 0.267
Размер потока : 1,31 Гбайт (90%)
Библиотека кодирования : XviD 65
Аудио
Идентификатор : 1
Формат : AC-3
Формат/Информация : Audio Coding 3
Параметр Endianness формата : Big
Идентификатор кодека : 2000
Продолжительность : 1 ч. 41 м.
Вид битрейта : Постоянный
Битрейт : 192 Кбит/сек
Каналы : 2 канала
Расположение каналов : Front: L R
Частота : 48,0 КГц
Частота кадров : 31,250 кадров/сек (1536 SPF)
Битовая глубина : 16 бит
Метод сжатия : С потерями
Размер потока : 139 Мбайт (9%)
Выравнивание : Разделение по промежуткам
Продолжительность промежутка : 42 мс. (1,00 видеокадр)
Время предзагрузки промежутка : 500 мс.
ServiceKind/String : Complete Main

Скриншот c названием фильма

Скриншоты

If your ratio falls below 0.3, you will not be able to download Torrents! More about the rating.

[erzsebet.pl].t621.torrent
Torrent: Registered [ 2017-12-02 17:13 ] · 983F36A430B2B37D2CDD2EE2A3595C3C5250606A

Download .torrent

Download

15 KB

Status: checked
Completed: 16 times
Size: 1.45 GB
terms.php
[Profile] [PM]
Display posts:    
Reply to topic

Current time is: 24-Jan 14:55

All times are UTC ± 0



You cannot post new topics in this forum
You cannot reply to topics in this forum
You cannot edit your posts in this forum
You cannot delete your posts in this forum
You cannot vote in polls in this forum
You cannot attach files in this forum
You can download files in this forum