Ангел-хранитель / Guardian Angel (Ричард У. Манчкин / Richard W. Munchkin) [1994, США, Боевик, DVDRip] AVO (Андрей Дольский) + Original Eng

Reply to topic
DL-List and Torrent activity
Size:  1.46 GB   |    Registered:  3 years 1 month   |    Completed:  16 times

Seeder not seen: Never

 
   
 
 
Author Message

erzsebet.org ®

Longevity: 3 years 1 month

Posts: 47596

Post 02-Dec-2017 17:15

[Quote]

Ангел-хранитель / Guardian Angel

«A bodyguard with her own kind of justice...»

Страна: США
Жанр: Боевик
Год выпуска: 1994
Продолжительность: 01:31:35
Перевод: Авторский (одноголосый закадровый) Андрей Дольский
Субтитры: нет
Оригинальная аудиодорожка: английский
Режиссер: Ричард У. Манчкин / Richard W. Munchkin
В ролях: Синтия Ротрок, Дэниэл МакВикар, Лиди Денье, Маршалл Р. Тиг, Кен МакЛеод, Джон О’Лири, Анна Далва, Роберт Миано, Брайан Брофи, Мэттью Уолкер
Описание: Аннотация от alenavova
Динамичный боевик, в котором Синтия Ротрок в очередной раз успешно демонстрирует приемы кикбоксинга и каратэ. Ее персонаж МакКей (после гибели жениха и напарника от руки матерой убийцы и фальшивомонетчицы Нины) уходит из полиции и становится телохранителем богатого плэйбоя Хоббса, который, по иронии судьбы, был связан с Ниной плотски и по "работе". Нина (Лидия Деньер) - настоящий монстр, ненавидящий всех мужчин, не прочь поквитаться и с МакКей... Любители боевиков получат массу удовольствия, а вот тем, кого интересуют психологические и эстетические изыски, лучше этот фильм не смотреть.
Доп. информация: Дорожка с А. Дольским синхронизирована и наложена ale_x2008 при помощи Sony Vegas и VirtualDubMod.
За оцифрованную с VHS дорожку благодарим - alenavova
Релиз
Сэмпл: https://yadi.sk/i/RJebWAKZ3Q4NxG
Качество видео: DVDRip
Формат видео: AVI
Видео: XviD build 50, 656x496 (1.32:1), 25 fps, 1891 kbps avg, 0.23 bit/pixel
Аудио: AC3 Dolby Digital, 48000Hz 2/0 (L,R) ch (mono), 192.00 kbps avg
Аудио 2: AC3 Dolby Digital, 48000Hz 2/0 (L,R) ch, 192.00 kbps avg

MediaInfo

Ангел-хранитель - Guardian Angel [by ale_x2008].avi
Format : AVI
Format/Info : Audio Video Interleave
File size : 1.46 GiB
Duration : 1 h 31 min
Overall bit rate : 2 290 kb/s
Movie name : Ангел-хранитель - Guardian Angel [by ale_x2008]
Director : by ale_x2008
Writing application : VirtualDubMod 1.5.10.2 (build 2540/release)
Copyright : Edich2
Comment : erzsebet.org
Video
ID : 0
Format : MPEG-4 Visual
Format profile : [email protected]
Format settings, BVOP : No
Format settings, QPel : No
Format settings, GMC : No warppoints
Format settings, Matrix : Default (H.263)
Codec ID : XVID
Codec ID/Hint : XviD
Duration : 1 h 31 min
Bit rate : 1 891 kb/s
Width : 656 pixels
Height : 496 pixels
Display aspect ratio : 4:3
Frame rate : 25.000 FPS
Color space : YUV
Chroma subsampling : 4:2:0
Bit depth : 8 bits
Scan type : Progressive
Compression mode : Lossy
Bits/(Pixel*Frame) : 0.232
Stream size : 1.21 GiB (83%)
Writing library : XviD 1.2.1 (UTC 2008-12-04)
Audio #1
ID : 1
Format : AC-3
Format/Info : Audio Coding 3
Format settings, Endianness : Big
Codec ID : 2000
Duration : 1 h 31 min
Bit rate mode : Constant
Bit rate : 192 kb/s
Channel(s) : 2 channels
Channel positions : Front: L R
Sampling rate : 48.0 kHz
Frame rate : 31.250 FPS (1536 spf)
Bit depth : 16 bits
Compression mode : Lossy
Stream size : 126 MiB (8%)
Alignment : Split accross interleaves
Interleave, duration : 40 ms (1.00 video frame)
Interleave, preload duratio : 500 ms
Service kind : Complete Main
Audio #2
ID : 2
Format : AC-3
Format/Info : Audio Coding 3
Format settings, Endianness : Big
Codec ID : 2000
Duration : 1 h 31 min
Bit rate mode : Constant
Bit rate : 192 kb/s
Channel(s) : 2 channels
Channel positions : Front: L R
Sampling rate : 48.0 kHz
Frame rate : 31.250 FPS (1536 spf)
Bit depth : 16 bits
Compression mode : Lossy
Stream size : 126 MiB (8%)
Alignment : Split accross interleaves
Interleave, duration : 40 ms (1.00 video frame)
Interleave, preload duratio : 500 ms
Service kind : Complete Main

Скриншоты


If your ratio falls below 0.3, you will not be able to download Torrents! More about the rating.

[erzsebet.pl].t622.torrent
Torrent: Registered [ 2017-12-02 17:15 ] · 9D75EE50B65679E44A81DB01A18A8AB9063F4155

Download .torrent

Download

15 KB

Status: checked
Completed: 16 times
Size: 1.46 GB
terms.php
[Profile] [PM]
Display posts:    
Reply to topic

Current time is: 20-Jan 05:49

All times are UTC ± 0



You cannot post new topics in this forum
You cannot reply to topics in this forum
You cannot edit your posts in this forum
You cannot delete your posts in this forum
You cannot vote in polls in this forum
You cannot attach files in this forum
You can download files in this forum