Патруль безопасности / Safety Patrol (Сэвидж Стив Холланд / Savage Steve Holland) [1998, США, комедия, семейный, VHSRip] AVO (Сергей Визгунов)

Reply to topic
DL-List and Torrent activity
Size:  1.37 GB   |    Registered:  3 years 1 month   |    Completed:  16 times

Seeder not seen: Never

 
   
 
 
Author Message

erzsebet.org ®

Longevity: 3 years 1 month

Posts: 47596

Post 02-Dec-2017 17:15

[Quote]

Патруль безопасности / Safety Patrol
Страна: США
Жанр: комедия, семейный
Год выпуска: 1998
Продолжительность: 01:30:41
Перевод: Авторский (одноголосый закадровый) Сергей Визгунов
Субтитры: нет
Режиссер: Сэвидж Стив Холланд / Savage Steve Holland
В ролях: Лесли Нильсен
Баг Холл
Лэйни Казан
Кертис Армстронг
Стефани Фэраси
Алекс МакКенна
Эд МакМахон
«Странный Эл» Янкович
Шарлин Тилтон
Джон Беннет Перри
Филлип Ван Дайк
Описание: Самая большое и страстное желание бойскаута Бозелла — стать членом школьного Патруля безопасности. Но у него нет никаких шансов, а причиной всему — неуклюжесть парня. Исстрадавшегося подростка переводят в другую школу. И там его мечта сбывается…
Доп. информация: За оцифровку и предоставление для релиза на рутрекере большое спасибо RITONIS
Релиз
Сэмпл: https://yadi.sk/i/1-tm0FZV3Q2btW
Качество видео: VHSRip
Формат видео: AVI
Видео: 704x544 (1.29:1), 25 fps, XviD build 73 ~1955 kbps avg, 0.20 bit/pixel
Аудио: 48 kHz, AC3 Dolby Digital, 2/0 (L,R) ch, ~192 kbps

MediaInfo

Патруль Безопасности - Safety Patrol [by RITONS].avi
Format : AVI
Format/Info : Audio Video Interleave
File size : 1.37 GiB
Duration : 1 h 30 min
Overall bit rate : 2 158 kb/s
Movie name : Патруль Безопасности - Safety Patrol [by RITONS]
Director : by RITONS
Writing application : VirtualDubMod 1.5.10.3 | www.virtualdub-fr.org || (build 2550/release)
Copyright : Edich2
Comment : erzsebet.org
Video
ID : 0
Format : MPEG-4 Visual
Format profile : Advanced [email protected]
Format settings, BVOP : 2
Format settings, QPel : No
Format settings, GMC : No warppoints
Format settings, Matrix : Custom
Codec ID : XVID
Codec ID/Hint : XviD
Duration : 1 h 30 min
Bit rate : 1 956 kb/s
Width : 704 pixels
Height : 544 pixels
Display aspect ratio : 1.294
Frame rate : 25.000 FPS
Color space : YUV
Chroma subsampling : 4:2:0
Bit depth : 8 bits
Scan type : Progressive
Compression mode : Lossy
Bits/(Pixel*Frame) : 0.204
Stream size : 1.24 GiB (91%)
Writing library : XviD 73
Audio
ID : 1
Format : AC-3
Format/Info : Audio Coding 3
Format settings, Endianness : Big
Codec ID : 2000
Duration : 1 h 30 min
Bit rate mode : Constant
Bit rate : 192 kb/s
Channel(s) : 2 channels
Channel positions : Front: L R
Sampling rate : 48.0 kHz
Frame rate : 31.250 FPS (1536 spf)
Bit depth : 16 bits
Compression mode : Lossy
Stream size : 125 MiB (9%)
Alignment : Split accross interleaves
Interleave, duration : 40 ms (1.00 video frame)
Interleave, preload duratio : 500 ms
Service kind : Complete Main

Скриншоты


If your ratio falls below 0.3, you will not be able to download Torrents! More about the rating.

[erzsebet.pl].t628.torrent
Torrent: Registered [ 2017-12-02 17:15 ] · 88BBA276631F58ADEE78BD285A47DDA79FE9C072

Download .torrent

Download

14 KB

Status: checked
Completed: 16 times
Size: 1.37 GB
terms.php
[Profile] [PM]
Display posts:    
Reply to topic

Current time is: 24-Jan 16:06

All times are UTC ± 0



You cannot post new topics in this forum
You cannot reply to topics in this forum
You cannot edit your posts in this forum
You cannot delete your posts in this forum
You cannot vote in polls in this forum
You cannot attach files in this forum
You can download files in this forum