Тайны исповеди / Исповедь от чистого сердца / True Confessions (Улу Гросбард / Ulu Grosbard) [1981, США, драма, криминал, BDRip] AVO (Сергей Визгунов)

Reply to topic
DL-List and Torrent activity
Size:  1.48 GB   |    Registered:  3 years 1 month   |    Completed:  16 times

Seeder not seen: Never

 
   
 
 
Author Message

erzsebet.org ®

Longevity: 3 years 1 month

Posts: 47596

Post 02-Dec-2017 17:13

[Quote]

Тайны исповеди / Исповедь от чистого сердца / True Confessions
Страна: США
Жанр: драма, криминал
Год выпуска: 1981
Продолжительность: 01:48:05
Перевод: Авторский (одноголосый закадровый) Сергей Визгунов
Субтитры: нет
Режиссер: Улу Гросбард / Ulu Grosbard
В ролях: Роберт Де Ниро, Роберт Дювалл, Чарльз Дёрнинг, Кеннет МакМиллан, Эд Флэндерс, Сирил Кьюсак, Бёрджесс Мередит, Роуз Грегорио, Дэн Хедайя
Описание: Два брата ищут таинственного убийцу, чья жестокость не укладывается в рамки обычного понимания — тело жертвы разрезано пополам. Расследуя это зверское убийство юной проститутки, офицер полиции Том приезжает в город, где живет его брат — священник монсеньер Десмонд Спелласи. В деле оказываются замешанными самые уважаемые люди города, жертвующие огромные деньги на благотворительность и церковь. Так или иначе, но и священник, и полицейский тоже втягиваются в эту грязную игру, где запах денег отравляет души всех смертных....
Доп. информация: Выражаю огромную благодарность Нордеру за синхронизацию звуковой дорожки.
Сэмпл: https://yadi.sk/i/5AZ5fvBE3PUv5M
Качество видео: BDRip (Исходник True Confessions / 1981 / Blu-Ray Remux (1080p) / KinoZal)
Формат видео: AVI
Видео: XviD, 704x384, (1,85:1), 23,976 fps, 1723 Кбит/с, 8 бит, 0.27 bit/pixel
Аудио: Русский (АС3, 2 ch (Front: L R), 48,0 KHz, 224 Kbps)

MediaInfo

Общее
Полное имя : D:\Видеофильмы\В и д е о\Тайны исповеди (драма, криминал 1981 год).avi
Формат : AVI
Формат/Информация : Audio Video Interleave
Размер файла : 1,48 Гбайт
Продолжительность : 1 ч. 48 м.
Общий поток : 1956 Кбит/сек
Программа кодирования : VirtualDubMod 1.5.10.2 (build 2540/release)
Библиотека кодирования : VirtualDubMod build 2540/release
Видео
Идентификатор : 0
Формат : MPEG-4 Visual
Профиль формата : Advanced [email protected]
Параметр BVOP формата : 1
Параметр QPel формата : Нет
Параметр GMC формата : Без точки перехода
Параметр матрицы формата : Выборочная
Идентификатор кодека : XVID
Идентификатор кодека/Подсказка : XviD
Продолжительность : 1 ч. 48 м.
Битрейт : 1723 Кбит/сек
Ширина : 704 пикселя
Высота : 384 пикселя
Соотношение сторон : 1,85:1
Частота кадров : 23,976 (24000/1001) кадра/сек
Цветовое пространство : YUV
Субдискретизация насыщенности : 4:2:0
Битовая глубина : 8 бит
Тип развёртки : Прогрессивная
Метод сжатия : С потерями
Бит/(Пиксели*Кадры) : 0.266
Размер потока : 1,30 Гбайт (88%)
Библиотека кодирования : XviD 65
Аудио
Идентификатор : 1
Формат : AC-3
Формат/Информация : Audio Coding 3
Расширение режима : CM (complete main)
Параметр Endianness формата : Big
Идентификатор кодека : 2000
Продолжительность : 1 ч. 48 м.
Вид битрейта : Постоянный
Битрейт : 224 Кбит/сек
Каналы : 2 канала
Расположение каналов : Front: L R
Частота : 48,0 КГц
Частота кадров : 31,250 кадров/сек (1536 spf)
Метод сжатия : С потерями
Размер потока : 173 Мбайт (11%)
Выравнивание : Разделение по промежуткам
Продолжительность промежутка : 42 мс. (1,00 видеокадр)
Время предзагрузки промежутка : 500 мс.

Скриншот c названием фильма

Скриншоты

If your ratio falls below 0.3, you will not be able to download Torrents! More about the rating.

[erzsebet.pl].t629.torrent
Torrent: Registered [ 2017-12-02 17:13 ] · 9C32915D2520F3B250BCE1D65C9C43F21C4B4FF4

Download .torrent

Download

15 KB

Status: checked
Completed: 16 times
Size: 1.48 GB
terms.php
[Profile] [PM]
Display posts:    
Reply to topic

Current time is: 26-Jan 08:54

All times are UTC ± 0



You cannot post new topics in this forum
You cannot reply to topics in this forum
You cannot edit your posts in this forum
You cannot delete your posts in this forum
You cannot vote in polls in this forum
You cannot attach files in this forum
You can download files in this forum