Герой - одиночка / Last Man Standing (Уолтер Хилл / Walter Hill) [1996, США, боевик, триллер, драма, криминал, WEB-DLRip] [Open Matte] DVO (Союз)

Reply to topic
DL-List and Torrent activity
Size:  1.45 GB   |    Registered:  3 years 1 month   |    Completed:  16 times

Seeder not seen: Never

 
   
 
 
Author Message

erzsebet.org ®

Longevity: 3 years 1 month

Posts: 47596

Post 02-Dec-2017 17:15

[Quote]

Герой - одиночка / Last Man Standing / Open Matte
Страна: США
Жанр: боевик, триллер, драма, криминал
Год выпуска: 1996
Продолжительность: 01:40:53
Перевод: Профессиональный (двухголосый закадровый) Союз
Субтитры: нет
Режиссер: Уолтер Хилл / Walter Hill
В ролях: Брюс Уиллис, Брюс Дерн, Уильям Сэндерсон, Кристофер Уокен, Дэвид Патрик Келли, Карина Ломбард, Нед Эйзенберг, Александра Пауэрс, Майкл Империоли, Кен Дженкинс, Р.Д. Колл, Тед Маркленд, Лесли Манн, Патрик Килпатрик
Описание: Америка, времена «сухого закона». Бродяга и наемник Джон Смит по пути к мексиканской границе оказывается в маленьком техасском городке, где обосновались две банды бутлегеров — ирландца Дойла и итальянца Строззи, ведущие между собой бесконечные кровавые разборки. Примыкая по очереди то к одной, то к другой банде, разряжая свой пистолет то в одних гангстеров, то в других, Смит на самом деле преследует свои собственные цели…
Доп. информация:
Автор рипа - -=DoMiNo=-
Сэмпл: http://multi-up.com/1177473
Качество видео: WEB-DLRip (WEB-DL 1080p)
Формат видео: AVI
Видео: 720x400 (16:9), 23.976 fps, XviD ~1606 kbps, 0.23 bit/pixel
Аудио: 48 kHz, AC3, 3/2 (L,C,R,l,r) + LFE ch, 448 kbps

MediaInfo

General
Complete name : Герой-одиночка.(1996).WEB_DLRIP.[-=DoMiNo=-].avi
Format : AVI
Format/Info : Audio Video Interleave
File size : 1.45 GiB
Duration : 1 h 40 min
Overall bit rate : 2 063 kb/s
Writing library : VirtualDub build 35491/release
Video
ID : 0
Format : MPEG-4 Visual
Format profile : Advanced [email protected]
Format settings : BVOP1 / Custom Matrix
Format settings, BVOP : 1
Format settings, QPel : No
Format settings, GMC : No warppoints
Format settings, Matrix : Custom
Codec ID : XVID
Codec ID/Hint : XviD
Duration : 1 h 40 min
Bit rate : 1 606 kb/s
Width : 720 pixels
Height : 400 pixels
Display aspect ratio : 16:9
Frame rate : 23.976 (24000/1001) FPS
Color space : YUV
Chroma subsampling : 4:2:0
Bit depth : 8 bits
Scan type : Progressive
Compression mode : Lossy
Bits/(Pixel*Frame) : 0.233
Stream size : 1.13 GiB (78%)
Writing library : XviD 73
Audio
ID : 1
Format : AC-3
Format/Info : Audio Coding 3
Codec ID : 2000
Duration : 1 h 40 min
Bit rate mode : Constant
Bit rate : 448 kb/s
Channel(s) : 6 channels
Channel positions : Front: L C R, Side: L R, LFE
Sampling rate : 48.0 kHz
Frame rate : 31.250 FPS (1536 SPF)
Bit depth : 16 bits
Compression mode : Lossy
Stream size : 323 MiB (22%)
Alignment : Aligned on interleaves
Interleave, duration : 42 ms (1.00 video frame)
Interleave, preload duratio : 512 ms
Service kind : Complete Main

Скриншот c названием фильма

Скриншоты

If your ratio falls below 0.3, you will not be able to download Torrents! More about the rating.

[erzsebet.pl].t630.torrent
Torrent: Registered [ 2017-12-02 17:15 ] · 53D04C5A4CA576732C5F92ECDEDBB1AAB54766E2

Download .torrent

Download

30 KB

Status: checked
Completed: 16 times
Size: 1.45 GB
terms.php
[Profile] [PM]
Display posts:    
Reply to topic

Current time is: 20-Jan 07:38

All times are UTC ± 0



You cannot post new topics in this forum
You cannot reply to topics in this forum
You cannot edit your posts in this forum
You cannot delete your posts in this forum
You cannot vote in polls in this forum
You cannot attach files in this forum
You can download files in this forum