Об этом не говорят / Я не хочу об этом говорить / De eso no se habla / Di questo non si parla / I Don't Want to Talk About It (Мария Луиза Бемберг / María Luisa Bemberg) [1993, Аргентина, Италия, мелодрама, DVDRip] AVO (Алексеев) + Original Spa

Reply to topic
DL-List and Torrent activity
Size:  855 MB   |    Registered:  3 years 1 month   |    Completed:  16 times

Seeder not seen: Never

 
   
 
 
Author Message

erzsebet.org ®

Longevity: 3 years 1 month

Posts: 47596

Post 02-Dec-2017 17:15

[Quote]

Об этом не говорят / Я не хочу об этом говорить
De eso no se habla / Di questo non si parla

Страна: Аргентина, Италия
Жанр: мелодрама
Год выпуска: 1993
Продолжительность: 01:40:33
Перевод: Авторский (одноголосый закадровый) Антона Алексеева
Субтитры: нет
Оригинальная аудиодорожка: испанский
Режиссер: Мария Луиза Бемберг / María Luisa Bemberg
В ролях: Марчелло Мастроянни /Marcello Mastroianni/, Луизина Брандо /Luisina Brando/, Бетиана Блум /Betiana Blum/, Роберто Карнаги /Roberto Carnaghi/, Альберто Сегадо /Alberto Segado/, Хорхе Лус /Jorge Luz/, Моника Вилла /Mónica Villa/, Хуан Мануэль Тенута /Juan Manuel Tenuta/, Тина Серрано /Tina Serrano/, Алехандра Подеста /Alejandra Podesta/...
Рецензия Михаила Иванова: Этот замечательный фильм порадуюет любителей хорошего кино. В маленьком, провинциальном городке Аргентины живет вдова с дочерью, которая никогда не вырастет большой - она карлица. Лицо у нее симпатичное, прекрасная душа и характер, но мать считает, что из-за ее роста никто никогда не полюбит ее дочь. Но Марчелло Мастроянни, человек со средствами и уже пожилой, влюбляется в девочку-карлицу и женится на ней. Влюбляется безумно, одержимо. Это сюжет, но основная прелесть картины в тонкой режиссерской работе, прекрасной игре всех актеров и хорошем вкусе, чем-то напоминающим лучшие грузинские работы.
Доп. информация: исходный рип выкачал с помощью eMule; перевод Алексеева оцифровал и подготовил karlll, заключительноя треть фильма БЕЗ ПЕРЕВОДА !!! (фильм был допиской и целиком не поместился на кассету, возможно кто-нибудь сможет восполнить эту утрату субтитрами?), французский в сборку не включил для соответствия раздачи правилам треккера
Качество видео: DVDRip ~Сэмпл~
Формат видео: AVI
Видео: 704x384 (1.83:1), 25 fps, XviD 1.1 beta 1 (build 38) ~849 kbps avg, 0.13 bit/pixel
Аудио 1: 48 kHz, AC3 Dolby Digital, 2/0 (L,R) ch, ~192 kbps - Алексеев + испанский
Аудио 2: 48 kHz, MPEG Layer 3, 2 ch, ~128.00 kbps avg - испанский

MediaInfo

Формат : AVI
Формат/Информация : Audio Video Interleave
Размер файла : 855 Мбайт
Продолжительность : 1 ч. 40 м.
Общий поток : 1189 Кбит/сек
Название фильма : De eso no se habla (1993)
Программа кодирования : VirtualDubMod 1.5.10.3 | www.virtualdub-fr.org || (build 2550/release)
Библиотека кодирования : VirtualDubMod build 2550/release
Правообладатель : Karl's Bayou Country
Видео
Идентификатор : 0
Формат : MPEG-4 Visual
Профиль формата : [email protected]
Параметр BVOP формата : 2
Параметр QPel формата : Нет
Параметр GMC формата : Без точки перехода
Параметр матрицы формата : Default (H.263)
Идентификатор кодека : XVID
Идентификатор кодека/Подсказка : XviD
Продолжительность : 1 ч. 40 м.
Битрейт : 851 Кбит/сек
Ширина : 704 пикселя
Высота : 384 пикселя
Соотношение сторон : 1,85:1
Частота кадров : 25,000 кадров/сек
Цветовое пространство : YUV
Субдискретизация насыщенности : 4:2:0
Битовая глубина : 8 бит
Тип развёртки : Прогрессивная
Метод сжатия : С потерями
Бит/(Пиксели*Кадры) : 0.126
Размер потока : 612 Мбайт (72%)
Библиотека кодирования : XviD 1.1.0 Beta1 (UTC 2005-01-16)
Аудио #1
Идентификатор : 1
Формат : AC-3
Формат/Информация : Audio Coding 3
Расширение режима : CM (complete main)
Параметр Endianness формата : Big
Идентификатор кодека : 2000
Продолжительность : 1 ч. 40 м.
Вид битрейта : Постоянный
Битрейт : 192 Кбит/сек
Каналы : 2 канала
Расположение каналов : Front: L R
Частота : 48,0 КГц
Битовая глубина : 16 бит
Метод сжатия : С потерями
Размер потока : 138 Мбайт (16%)
Выравнивание : Разделение по промежуткам
Продолжительность промежутка : 40 мс. (1,00 видеокадр)
Время предзагрузки промежутка : 500 мс.
Заголовок : Алексеев, espanol
Аудио #2
Идентификатор : 2
Формат : MPEG Audio
Версия формата : Version 1
Профиль формата : Layer 3
Режим : Joint stereo
Расширение режима : MS Stereo
Идентификатор кодека : 55
Идентификатор кодека/Подсказка : MP3
Продолжительность : 1 ч. 40 м.
Вид битрейта : Постоянный
Битрейт : 128 Кбит/сек
Каналы : 2 канала
Частота : 48,0 КГц
Метод сжатия : С потерями
Размер потока : 92,1 Мбайт (11%)
Выравнивание : Соединение по промежуткам
Продолжительность промежутка : 24 мс. (0,60 видеокадр)
Время предзагрузки промежутка : 504 мс.
Заголовок : espanol

Скриншоты

If your ratio falls below 0.3, you will not be able to download Torrents! More about the rating.

[erzsebet.pl].t632.torrent
Torrent: Registered [ 2017-12-02 17:15 ] · 27F202C68585EB6CF6837A6A80D067A574B17981

Download .torrent

Download

17 KB

Status: checked
Completed: 16 times
Size: 855 MB
terms.php
[Profile] [PM]
Display posts:    
Reply to topic

Current time is: 23-Jan 23:26

All times are UTC ± 0



You cannot post new topics in this forum
You cannot reply to topics in this forum
You cannot edit your posts in this forum
You cannot delete your posts in this forum
You cannot vote in polls in this forum
You cannot attach files in this forum
You can download files in this forum