Одиночка / The Loner / Le solitaire (Жак Дере / Jacques Deray) [1987, Франция, боевик, триллер, драма, криминал, HDRip] MVO (Россия)

Reply to topic
DL-List and Torrent activity
Size:  1.37 GB   |    Registered:  3 years 1 month   |    Completed:  16 times

Seeder not seen: Never

 
   
 
 
Author Message

erzsebet.org ®

Longevity: 3 years 1 month

Posts: 47596

Post 02-Dec-2017 17:13

[Quote]

Одиночка / The Loner / Le solitaire-Он поклялся любой ценой отомстить убийце друга и напарника.
Начав безжалостную охоту на опаснейшего преступника, он вынужден действовать в одиночку.
- Год выпуска: 1987
Страна: Франция
Жанр: боевик, триллер, драма, криминал
Продолжительность: 01:32:06
Перевод: Профессиональный (многоголосый закадровый) - Россия
Субтитры: нет
Режиссер: Жак Дере / Jacques Deray
В ролях: Жан-Поль Бельмондо / Stan Jalard, Жан-Пьер Мало / Charly Schneider, Мишель Бон / Le commissaire Pezzoli, Пьер Вернье / Maurin, Франсуа Дюнойе / René Pignon, Франк Айя / Christian, Лоран Жандрон / Rocky, Жан-Клод Де Горос / Boulin, Ги Паннекин / Sumatra, Патриция Мальвуазен / Brigitte-Мировая премьера: 18 марта 1987-Описание: Полицейские-напарники Стан и Симон мечтают выйти в отставку и поселиться в тропическом раю на карибских островах. Но однажды, при попытке задержать в ночном клубе опасного убийцу Шнайдера, Симон погибает во время перестрелки. Преступнику удается скрыться. Стан берет на себя заботу о маленьком сыне Симона Кристиане и клянется любой ценой отомстить убийце своего друга. Лишь через два года ему удается выследить Шнайдера. Стан начинает безжалостную охоту на преступника, но из-за ожесточенного соперничества между коллегами-полицейскими он вынужден действовать в одиночку...-Огромная благодарность:
smit009 - видеоряд
pasific2013 - личная запись фильма с телеканала Россия через видеомагнитофон и оцифровка звука с видеокассеты.
JUSTKANT - синхронизация перевода.-ДАННЫЙ ПЕРЕВОД НА ТРЕКЕРЕ ПОЯВЛЯЕТСЯ ВПЕРВЫЕ!
На русский язык фильм озвучен по заказу телеканала "Россия" в 2003 году.
Текст читают Олег Куценко, Александр Быков, Ольга Сирина и Александр Котов.-
Рейтинг
-Качество видео: HDRip
Формат видео: AVI -> //Сэмпл//
Видео: XviD, 720x384 (1.85:1), 25.000 fps, 1932 kbps
Аудио:
1 - 48 khz, AC3 Dolby Digital, 2/0 (L,R) ch, ~192 kbps [Россия] VHSRip-ТВ

MediaInfo

General
Complete name : D:\Одиночка (Россия).avi
Format : AVI
Format/Info : Audio Video Interleave
File size : 1.37 GiB
Duration : 1 h 32 min
Overall bit rate : 2 134 kb/s
Movie name : Одиночка / Le solitaire (Россия)
Director : JUSTKANT
Writing application : VirtualDubMod 1.5.10.3 (build 2550/release)
Copyright : На русский язык фильм озвучен по заказу телеканала "Россия" в 2003 году
Comment : Качество звука: VHSRipТВ (pasific2013)
Video
ID : 0
Format : MPEG-4 Visual
Format profile : Advanced [email protected]
Format settings, BVOP : 1
Format settings, QPel : No
Format settings, GMC : No warppoints
Format settings, Matrix : Custom
Codec ID : XVID
Codec ID/Hint : XviD
Duration : 1 h 32 min
Bit rate : 1 932 kb/s
Width : 720 pixels
Height : 384 pixels
Display aspect ratio : 1.85:1
Frame rate : 25.000 FPS
Color space : YUV
Chroma subsampling : 4:2:0
Bit depth : 8 bits
Scan type : Progressive
Compression mode : Lossy
Bits/(Pixel*Frame) : 0.280
Stream size : 1.24 GiB (91%)
Writing library : XviD 73
Audio
ID : 1
Format : AC-3
Format/Info : Audio Coding 3
Format settings, Endianness : Big
Codec ID : 2000
Duration : 1 h 32 min
Bit rate mode : Constant
Bit rate : 192 kb/s
Channel(s) : 2 channels
Channel positions : Front: L R
Sampling rate : 48.0 kHz
Frame rate : 31.250 FPS (1536 SPF)
Bit depth : 16 bits
Compression mode : Lossy
Stream size : 126 MiB (9%)
Alignment : Split accross interleaves
Interleave, duration : 40 ms (1.00 video frame)
Interleave, preload duratio : 500 ms
Title : РОССИЯ: Олег Куценко, Александр Быков, Ольга Сирина и Александр Котов
Service kind : Complete Main

Скриншот c названием фильма

Скриншоты

If your ratio falls below 0.3, you will not be able to download Torrents! More about the rating.

[erzsebet.pl].t642.torrent
Torrent: Registered [ 2017-12-02 17:13 ] · 837CFF0889C76E181B1FE8E135BF72287BF06326

Download .torrent

Download

14 KB

Status: checked
Completed: 16 times
Size: 1.37 GB
terms.php
[Profile] [PM]
Display posts:    
Reply to topic

Current time is: 24-Jan 16:13

All times are UTC ± 0



You cannot post new topics in this forum
You cannot reply to topics in this forum
You cannot edit your posts in this forum
You cannot delete your posts in this forum
You cannot vote in polls in this forum
You cannot attach files in this forum
You can download files in this forum