Ягуар / Le jaguar (Франсис Вебер / Francis Veber) [1996, Франция, приключения, комедия, DVDRip] AVO (Сергей Визгунов)

Reply to topic
DL-List and Torrent activity
Size:  1.45 GB   |    Registered:  3 years 1 month   |    Completed:  16 times

Seeder not seen: Never

 
   
 
 
Author Message

erzsebet.org ®

Longevity: 3 years 1 month

Posts: 47596

Post 02-Dec-2017 17:17

[Quote]

Ягуар / Le jaguar
Страна: Франция
Жанр: приключения, комедия
Год выпуска: 1996
Продолжительность: 01:35:58
Перевод: Авторский (одноголосый закадровый) Сергей Визгунов
Субтитры: нет
Режиссер: Франсис Вебер / Francis Veber
В ролях: Жан Рено, Патрик Брюэль, Харрисон Лоу, Патрисия Веласкес, Дэнни Трехо, Ролан Бланш, Франсуа Перро, Франсис Лемэр, Джил Бирмингем
Описание: Жизнь – удивительная штука, она может преподнести миллион ситуаций, после которых, вся твоя прежняя жизнь кажется бессмысленной тратой времени. Итак, нелепая ситуация сводит троих, совершенно непохожих друг на друга людей вместе в необычном месте – лифт известного отеля Парижа "Крийон". Индеец, который только приехал в Париж, его переводчик французского происхождения, но выросший в семье индейцев и плут, бездельник и мошенник Перрен, за головой которого охотится ни один человек, ведь игорные долги не прощаются. После недолго разговора индеец понимает, что именно Перрен тот самый, "избранный". После спасения от преследователей, новые товарищи отправляются в таинственные леса Амазонки за душой Вану. После немногочисленных странных происшествий, Перрен осознает всю беспечность и бессмысленность своей прошлой жизни...
Доп. информация: Выражаю огромную благодарность Нордеру за синхронизацию звуковой дорожки.
Сэмпл: http://multi-up.com/1177345
Качество видео: DVDRip (Исходник - DVD Video)
Формат видео: AVI
Видео: XviD 73, 704x384, (1,85:1), 25,000 fps, 1708 Кбит/с, 8 бит
Аудио: Русский (АС3, 6 ch (Front: L C R, Side: L R, LFE), 48,0 KHz, 448 Kbps)

MediaInfo

Общее
Полное имя : H:\Фильмы на трекер\Ягуар (приключения, комедия 1996 год).avi
Формат : AVI
Формат/Информация : Audio Video Interleave
Размер файла : 1,45 Гбайт
Продолжительность : 1 ч. 35 м.
Общий поток : 2165 Кбит/сек
Программа кодирования : VirtualDubMod 1.5.10.3 | www.virtualdub-fr.org || (build 2550/release)
Библиотека кодирования : VirtualDubMod build 2550/release
Видео
Идентификатор : 0
Формат : MPEG-4 Visual
Профиль формата : Advanced [email protected]
Параметр BVOP формата : 2
Параметр QPel формата : Нет
Параметр GMC формата : Без точки перехода
Параметр матрицы формата : Выборочная
Идентификатор кодека : XVID
Идентификатор кодека/Подсказка : XviD
Продолжительность : 1 ч. 35 м.
Битрейт : 1708 Кбит/сек
Ширина : 704 пикселя
Высота : 384 пикселя
Соотношение сторон : 1,85:1
Частота кадров : 25,000 кадров/сек
Цветовое пространство : YUV
Субдискретизация насыщенности : 4:2:0
Битовая глубина : 8 бит
Тип развёртки : Прогрессивная
Метод сжатия : С потерями
Бит/(Пиксели*Кадры) : 0.253
Размер потока : 1,14 Гбайт (79%)
Библиотека кодирования : XviD 73
Аудио
Идентификатор : 1
Формат : AC-3
Формат/Информация : Audio Coding 3
Расширение режима : CM (complete main)
Параметр Endianness формата : Big
Идентификатор кодека : 2000
Продолжительность : 1 ч. 35 м.
Вид битрейта : Постоянный
Битрейт : 448 Кбит/сек
Каналы : 6 каналов
Расположение каналов : Front: L C R, Side: L R, LFE
Частота : 48,0 КГц
Частота кадров : 31,250 кадров/сек (1536 spf)
Метод сжатия : С потерями
Размер потока : 308 Мбайт (21%)
Выравнивание : Разделение по промежуткам
Продолжительность промежутка : 40 мс. (1,00 видеокадр)
Время предзагрузки промежутка : 500 мс.

Скриншот c названием фильма

Скриншоты

If your ratio falls below 0.3, you will not be able to download Torrents! More about the rating.

[erzsebet.pl].t645.torrent
Torrent: Registered [ 2017-12-02 17:17 ] · BE3C863EF4EEA228F36825669D62BE1BC2C9865E

Download .torrent

Download

15 KB

Status: checked
Completed: 16 times
Size: 1.45 GB
terms.php
[Profile] [PM]
Display posts:    
Reply to topic

Current time is: 21-Jan 16:54

All times are UTC ± 0



You cannot post new topics in this forum
You cannot reply to topics in this forum
You cannot edit your posts in this forum
You cannot delete your posts in this forum
You cannot vote in polls in this forum
You cannot attach files in this forum
You can download files in this forum