Непобедимая сила / Неотвратимая сила / Irresistible Force (Кевин Хукс / Kevin Hooks) [1993, США, Боевик, DVDRip] AVO (А. Дольский)

Reply to topic
DL-List and Torrent activity
Size:  1.09 GB   |    Registered:  3 years 1 month   |    Completed:  16 times

Seeder not seen: Never

 
   
 
 
Author Message

erzsebet.org ®

Longevity: 3 years 1 month

Posts: 47596

Post 02-Dec-2017 17:17

[Quote]

Непобедимая сила / Неотвратимая сила / Irresistible Force
Страна: США
Жанр: Боевик
Год выпуска: 1993
Продолжительность: 1:10:15
Перевод: Авторский (одноголосый закадровый) А. Дольский
Субтитры: нет
Режиссер: Кевин Хукс / Kevin Hooks
В ролях: Стейси Кич , Синтия Ротрок
Кристофер Ним
Кэтлин Гаррет
Майкл Бэколл
Николас Хэммонд
Джером Элерс
Пол Уинфилд
Пенн Хэкфорт-Джонс
Ким Нуки
Описание: Полицейскому (Кич) осталось чуть-чуть до пенсии, и он обещал жене, что доживет до нее, когда та снимала ему очередные швы. Он попросил себе в напарники женщину, вычитав где-то, что с ними работать на сорок процентов безопасней. Дали ему крутую каратистку (Ротрок), единственную женщину, служившую в спецотряде "Морские львы". В первый же день они с шумом и пальбой задержали и частично убили пятерых вооруженных грабителей. А на следующий день, когда их уже отстранили от службы за всякие вольности, они практически вдвоем боролись против террористов, захвативших заложников в новом универсаме. Борьба оказалась кровопролитной и мордобоистой. (Иванов М.)
Доп. информация: Звуковая дорожка использована с этого релиза http://erzsebet.org/forum/viewtopic.php?t=813060
Видеоряд найден в сети

Сэмпл: https://yadi.sk/i/CjfQIJxU3PwJKi
Качество видео: DVDRip
Формат видео: AVI
Видео: Xvid MPEG-4 , 640x480 (1.33:1) , 23.976 fps , 2 024 Kbps
Аудио: AC3 , 48 kHz , 192.00 kbps avg , 2/0 (L,R) ch

MediaInfo

Complete name Неотвратимая сила 1993.avi
Format : AVI
Format/Info : Audio Video Interleave
File size : 1.09 GiB
Duration : 1h 10mn
Overall bit rate : 2 225 Kbps
Writing application : VirtualDubMod 1.5.10.3 | www.virtualdub-fr.org || (build 2550/release)
Writing library : VirtualDub build 35491/release
Video
ID : 0
Format : MPEG-4 Visual
Format profile : Advanced [email protected]
Format settings, BVOP : 1
Format settings, QPel : No
Format settings, GMC : No warppoints
Format settings, Matrix : Custom
Codec ID : XVID
Codec ID/Hint : XviD
Duration : 1h 10mn
Bit rate : 2 024 Kbps
Width : 640 pixels
Height : 480 pixels
Display aspect ratio : 4:3
Frame rate : 23.976 (24000/1001) fps
Color space : YUV
Chroma subsampling : 4:2:0
Bit depth : 8 bits
Scan type : Progressive
Compression mode : Lossy
Bits/(Pixel*Frame) : 0.275
Stream size : 1 017 MiB (91%)
Writing library : XviD 73
Audio
ID : 1
Format : AC-3
Format/Info : Audio Coding 3
Mode extension : CM (complete main)
Format settings, Endianness : Big
Codec ID : 2000
Duration : 1h 10mn
Bit rate mode : Constant
Bit rate : 192 Kbps
Channel(s) : 2 channels
Channel positions : Front: L R
Sampling rate : 48.0 KHz
Frame rate : 31.250 fps (1536 spf)
Compression mode : Lossy
Stream size : 96.5 MiB (9%)
Alignment : Aligned on interleaves
Interleave, duration : 42 ms (1.00 video frame)
Interleave, preload duratio : 512 ms

If your ratio falls below 0.3, you will not be able to download Torrents! More about the rating.

[erzsebet.pl].t651.torrent
Torrent: Registered [ 2017-12-02 17:17 ] · 67333415FCEAF3CCBCA68B6A439919D64296F670

Download .torrent

Download

12 KB

Status: checked
Completed: 16 times
Size: 1.09 GB
terms.php
[Profile] [PM]
Display posts:    
Reply to topic

Current time is: 18-Jan 22:49

All times are UTC ± 0



You cannot post new topics in this forum
You cannot reply to topics in this forum
You cannot edit your posts in this forum
You cannot delete your posts in this forum
You cannot vote in polls in this forum
You cannot attach files in this forum
You can download files in this forum