Возвращение в голубую лагуну / Return To The Blue Lagoon (Уильям А. Грэм / William A. Graham) [1991, США, драма, мелодрама, приключения, VHSRip] AVO Александр Смирнов

Reply to topic
DL-List and Torrent activity
Size:  1.38 GB   |    Registered:  3 years 1 month   |    Completed:  16 times

Seeder not seen: Never

 
   
 
 
Author Message

erzsebet.org ®

Longevity: 3 years 1 month

Posts: 47596

Post 02-Dec-2017 17:17

[Quote]

Возвращение в голубую лагуну / Return To The Blue Lagoon
«Return to the Romance, Return to the Adventure...»
Страна: США
Жанр: драма, мелодрама, приключения
Год выпуска: 1991
Продолжительность: 01:38:04
Перевод: Авторский (одноголосый закадровый) Александр Смирнов
Субтитры: нет
Режиссер: Уильям А. Грэм / William A. Graham
В ролях: Милла Йовович (Lilli), Брайан Краузе (Richard), Лиза Пеликан (Sarah Hargrave), Кортни Барилла (Young Lilli), Гэретт Рэтлиф Хэнсон (Young Richard), Эмма Джеймс (Infant Lilli), Джексон Бартон (Infant Richard), Нана Коберн (Sylvia Hilliard), Брайан Блен (Capt. Jacob Hilliard), Питер Хехир (Quinlan)
Описание: Даже в Раю нельзя остановить бег времени, герои «Голубой Лагуны», долгие годы счастливо прожившие на идиллическом необитаемом острове, умерли, но их тропический рай не остался пустыней. На смену им пришли их сын Ричард и девочка Лили, дочь погибшей пассажирки с проходившего мимо корабля. Вынужденные с восьми лет жить одни в затерянном среди океана тропическом раю, они беспечно проводили дни в своем Эдеме, незаметно превращаясь из мальчика и девочки в мужчину и женщину. Но однажды у острова бросает якорь корабль. И вместе с ним в жизнь невинных островитян приходят соблазны и опасности цивилизации, грозящие разрушить идиллию их жизни…
Доп. информация: Оцифровка собственной VHS от СашокSP и предоставление для рутрекера.
Релиз
Сэмпл: https://yadi.sk/i/UWPpoC3A3PumBN
Качество видео: VHSRip
Формат видео: AVI
Видео: 704x528 (1.33:1), 25 fps, XviD build 73 ~1805 kbps avg, 0.19 bit/pixel
Аудио: 48 kHz, AC3 Dolby Digital, 2/0 (L,R) ch, ~192 kbps

MediaInfo

Возвращение в голубую лагуну - Return To The Blue Lagoon [by СашокSP].avi
Format : AVI
Format/Info : Audio Video Interleave
File size : 1.38 GiB
Duration : 1 h 38 min
Overall bit rate : 2 008 kb/s
Movie name : Возвращение в голубую лагуну - Return To The Blue Lagoon [by СашокSP]
Director : by СашокSP
Writing application : VirtualDubMod 1.5.10.3 | www.virtualdub-fr.org || (build 2550/release)
Copyright : Edich2
Comment : RuTraker.org
Video
ID : 0
Format : MPEG-4 Visual
Format profile : Advanced [email protected]
Format settings, BVOP : 2
Format settings, QPel : No
Format settings, GMC : No warppoints
Format settings, Matrix : Custom
Codec ID : XVID
Codec ID/Hint : XviD
Duration : 1 h 38 min
Bit rate : 1 806 kb/s
Width : 704 pixels
Height : 528 pixels
Display aspect ratio : 4:3
Frame rate : 25.000 FPS
Color space : YUV
Chroma subsampling : 4:2:0
Bit depth : 8 bits
Scan type : Progressive
Compression mode : Lossy
Bits/(Pixel*Frame) : 0.194
Stream size : 1.24 GiB (90%)
Writing library : XviD 73
Audio
ID : 1
Format : AC-3
Format/Info : Audio Coding 3
Format settings, Endianness : Big
Codec ID : 2000
Duration : 1 h 38 min
Bit rate mode : Constant
Bit rate : 192 kb/s
Channel(s) : 2 channels
Channel positions : Front: L R
Sampling rate : 48.0 kHz
Frame rate : 31.250 FPS (1536 spf)
Bit depth : 16 bits
Compression mode : Lossy
Stream size : 135 MiB (10%)
Alignment : Split accross interleaves
Interleave, duration : 40 ms (1.00 video frame)
Interleave, preload duratio : 500 ms
Service kind : Complete Main

Скриншоты


If your ratio falls below 0.3, you will not be able to download Torrents! More about the rating.

[erzsebet.pl].t653.torrent
Torrent: Registered [ 2017-12-02 17:17 ] · B9E7D846C58643EEDDD9C936923E7DB2638F92A0

Download .torrent

Download

14 KB

Status: checked
Completed: 16 times
Size: 1.38 GB
terms.php
[Profile] [PM]
Display posts:    
Reply to topic

Current time is: 20-Jan 07:54

All times are UTC ± 0



You cannot post new topics in this forum
You cannot reply to topics in this forum
You cannot edit your posts in this forum
You cannot delete your posts in this forum
You cannot vote in polls in this forum
You cannot attach files in this forum
You can download files in this forum