Американские драконы / American Dragons (Ральф Хемекер / Ralph Hemecker) [1998, Канада, США, боевик, криминал, WEB-DLRip] DVO (НТВ+) + MVO (ТВ3) + DVO (ukr) + MVO (ukr) + Sub Eng + Original Eng

Reply to topic
DL-List and Torrent activity
Size:  1.72 GB   |    Registered:  3 years 1 month   |    Completed:  16 times

Seeder not seen: Never

 
   
 
 
Author Message

erzsebet.org ®

Longevity: 3 years 1 month

Posts: 47596

Post 02-Dec-2017 17:17

[Quote]

Американские драконы / American Dragons
Страна: Канада, США
Жанр: боевик, криминал
Год выпуска: 1998
Продолжительность: 01:35:17
Перевод: Профессиональный (двухголосый закадровый) НТВ+
Перевод 2: Профессиональный (многоголосый закадровый) ТВ3
Отдельно:
Перевод 3: Украинский - Профессиональный (двухголосый закадровый) AMC
Перевод 4: Украинский - Профессиональный (многоголосый закадровый) 2+2
Субтитры: английские
Оригинальная аудиодорожка: английский
Режиссер: Ральф Хемекер / Ralph Hemecker
В ролях: Кэри-Хироюки Тагава, Майкл Бьен, Чун-Хун Парк, Дон Старк, Байрон Манн, Бенжамин Рэтнер, Лорена Гэйл, Хиро Канагава, Брэд Лори, Дин Чоу
Описание: Нью-Йоркскому полицейскому Тони Люке поручают дело об убийстве влиятельного бизнесмена Нода, одного из заправил Якудзы. Во время расследования к нему присоединяется коллега из Сеула, подозревающий, что эта смерть - дело рук жестокого убийцы Куро-Най.Этот беспощадный мастер боевых исскуств принадлежит к криминальному синдикату,который подчиняет себе другие преступные группировки, убивая их лидеров.Компаньоны расставляют ловушку, не предполагая, что их имена стоят в списке следующими. Начинается смертельная игра, когда каждый считает себя охотником и каждый может оказаться жертвой.

Сэмпл: https://yadi.sk/i/NBXr-7Vy3PnHuZ
Релиз от:
Качество видео: WEB-DLRip
Формат видео: AVI
Видео: 688x368 (1.87:1), 23.976 fps, XviD build 50 ~1606 kbps avg, 0.33 bit/pixel
Аудио: 48 kHz, AC3 Dolby Digital, 2/0 (L,R) ch, ~192 kbps НТВ+
Аудио 2: 48 kHz, AC3 Dolby Digital, 2/0 (L,R) ch, ~192 kbps ТВ3
Аудио 3: 48 kHz, AC3 Dolby Digital, 2/0 (L,R) ch, ~192 kbps Eng
Отдельно:
Аудио 4: 48 kHz, AC3 Dolby Digital, 2/0 (L,R) ch, ~192 kbps Ukr
Аудио 5: 48 kHz, AC3 Dolby Digital, 2/0 (L,R) ch, ~192 kbps Ukr
Формат субтитров: softsub (SRT)

MediaInfo

Общее
Полное имя : D:\American Dragons (1998) WEB-DLRip (2xRus, Eng).avi
Формат : AVI
Формат/Информация : Audio Video Interleave
Размер файла : 1,46 Гбайт
Продолжительность : 1 ч. 35 м.
Общий поток : 2196 Кбит/сек
Название фильма : American Dragons (1998) WEB-DLRip (2xRus, Eng)
Режиссёр : Maksmet
Формат оригинала/Имя : Movie
Примечание : 14.11.2017
Видео
Идентификатор : 0
Формат : MPEG-4 Visual
Профиль формата : Advanced [email protected]
Параметр BVOP формата : 1
Параметр QPel формата : Нет
Параметр GMC формата : Без точки перехода
Параметр матрицы формата : Выборочная
Идентификатор кодека : XVID
Идентификатор кодека/Подсказка : XviD
Продолжительность : 1 ч. 35 м.
Битрейт : 1606 Кбит/сек
Ширина : 688 пикселей
Высота : 368 пикселей
Соотношение сторон : 1,85:1
Частота кадров : 23,976 (24000/1001) кадра/сек
Цветовое пространство : YUV
Субдискретизация насыщенности : 4:2:0
Битовая глубина : 8 бит
Тип развёртки : Прогрессивная
Метод сжатия : С потерями
Бит/(Пиксели*Кадры) : 0.265
Размер потока : 1,07 Гбайт (73%)
Библиотека кодирования : XviD 1.2.1 (UTC 2008-12-04)
Аудио #1
Идентификатор : 1
Формат : AC-3
Формат/Информация : Audio Coding 3
Параметр Endianness формата : Big
Идентификатор кодека : 2000
Продолжительность : 1 ч. 35 м.
Вид битрейта : Постоянный
Битрейт : 192 Кбит/сек
Каналы : 2 канала
Расположение каналов : Front: L R
Частота : 48,0 КГц
Частота кадров : 31,250 кадров/сек (1536 SPF)
Битовая глубина : 16 бит
Метод сжатия : С потерями
Размер потока : 131 Мбайт (9%)
Выравнивание : Соединение по промежуткам
Продолжительность промежутка : 64 мс. (1,53 видеокадра)
Время предзагрузки промежутка : 192 мс.
Заголовок : T2_Audio - Russian
ServiceKind/String : Complete Main
Аудио #2
Идентификатор : 2
Формат : AC-3
Формат/Информация : Audio Coding 3
Параметр Endianness формата : Big
Идентификатор кодека : 2000
Продолжительность : 1 ч. 35 м.
Вид битрейта : Постоянный
Битрейт : 192 Кбит/сек
Каналы : 2 канала
Расположение каналов : Front: L R
Частота : 48,0 КГц
Частота кадров : 31,250 кадров/сек (1536 SPF)
Битовая глубина : 16 бит
Метод сжатия : С потерями
Размер потока : 131 Мбайт (9%)
Выравнивание : Соединение по промежуткам
Продолжительность промежутка : 64 мс. (1,53 видеокадра)
Время предзагрузки промежутка : 192 мс.
Заголовок : T3_Audio - Russian
ServiceKind/String : Complete Main
Аудио #3
Идентификатор : 3
Формат : AC-3
Формат/Информация : Audio Coding 3
Параметр Endianness формата : Big
Идентификатор кодека : 2000
Продолжительность : 1 ч. 35 м.
Вид битрейта : Постоянный
Битрейт : 192 Кбит/сек
Каналы : 2 канала
Расположение каналов : Front: L R
Частота : 48,0 КГц
Частота кадров : 31,250 кадров/сек (1536 SPF)
Битовая глубина : 16 бит
Метод сжатия : С потерями
Размер потока : 131 Мбайт (9%)
Выравнивание : Соединение по промежуткам
Продолжительность промежутка : 64 мс. (1,53 видеокадра)
Время предзагрузки промежутка : 192 мс.
Заголовок : T6_Audio - English
ServiceKind/String : Complete Main

Скриншот c названием фильма

Скриншоты

If your ratio falls below 0.3, you will not be able to download Torrents! More about the rating.

[erzsebet.pl].t654.torrent
Torrent: Registered [ 2017-12-02 17:17 ] · D13464C1DD14359378C959554506C63748DE5FEF

Download .torrent

Download

18 KB

Status: checked
Completed: 16 times
Size: 1.72 GB
terms.php
[Profile] [PM]
Display posts:    
Reply to topic

Current time is: 23-Jan 11:31

All times are UTC ± 0



You cannot post new topics in this forum
You cannot reply to topics in this forum
You cannot edit your posts in this forum
You cannot delete your posts in this forum
You cannot vote in polls in this forum
You cannot attach files in this forum
You can download files in this forum