Почти ангел / Almost an Angel (Джон Корнелл / John Cornell) [1990, США, комедия, VHSRip-AVC] [Fullscreen] AVO (Кашкин) + VO (МП "Мега") + Original eng

Reply to topic
DL-List and Torrent activity
Size:  2.54 GB   |    Registered:  3 years 1 month   |    Completed:  16 times

Seeder not seen: Never

 
   
 
 
Author Message

erzsebet.org ®

Longevity: 3 years 1 month

Posts: 47596

Post 02-Dec-2017 17:13

[Quote]

Почти ангел / Almost an Angel [Fullscreen]- Страна: США
Жанр: комедия
Год выпуска: 1990
Продолжительность: 01:31:33-Перевод 1: Авторский (одноголосый закадровый) - Александр Кашкин
Перевод 2: Одноголосый закадровый - Малое предприятие "Мега"
Субтитры: нет
Оригинальная аудиодорожка: английская-Режиссер: Джон Корнелл / John Cornell
В ролях: Пол Хоган, Элиас Котеас, Линда Козловски, Дарлин Лэнг, Дуглас Сил, Парли Баэр, Майкл Олдредж, Дэвид Алан Грир, Ларри Миллер, Трэвис Венейбл, Роберт Саттон, Эдди Фриаш...- | Релиз: -Описание: Главный герой Тэрри Дин — не от мира сего, чудак и добряга! И это не смотря на то, что Тэрри — профессиональный грабитель, технически подкованный в электронике. «Откинулся» мистер Дин на свободу, и опять за свое! Не удержался, ограбил банк.
Но происходит невероятное — он спасает из под колес автомобиля мальчика, однако, ценой собственного здоровья. Сбитого грабителя везут в больницу. Находясь или в коме, или просто во сне, он разговаривает с Богом и тот отправляет Тэрри обратно на Землю в качестве ангела. Когда это видение проходит, Тэрри остается в убеждении, что он стал ангелом. И это убеждение ввергает его в весьма забавные переделки.-Доп. информация: К личной оцифровке VHS с переводом Александра Кашкина (Hi-Fi Stereo) добавлена звуковая дорожка с переводом МП "Мега" (за оцифровку спасибо Glowamy) и оригинальная звуковая дорожка с DVD R1.-Семпл: http://sendfile.su/1375151-Тип релиза: VHSRip-AVC
Контейнер: MKV
Видео: 692x566 (4:3) @ 738x566, 25.000 fps, AVC, ~3287 Kbps, 0.336 bits/pixel
Аудио 1: Русский, 48.0 KHz, AC3, 2 ch, 224 Kbps - Закадровый | Александр Кашкин | VHS Hi-Fi
Аудио 2: Русский, 48.0 KHz, AC3, 1 ch, 192 Kbps - Закадровый | Малое предприятие "Мега" | VHS
Аудио 3: English, 48.0 KHz, AC3, 2 ch, 192 Kbps - Original | DVD R1

MediaInfo

General
Unique ID : 251714761485508786405747602227341292181 (0xBD5E7FE9A5AE6A95A07E4EDC666BF295)
Complete name : Almost an angel 1990 [Fullscreen] VHS.mkv
Format : Matroska
Format version : Version 4 / Version 2
File size : 2.54 GiB
Duration : 1 h 31 min
Overall bit rate : 3 974 kb/s
Encoded date : UTC 2017-11-05 11:31:39
Writing application : mkvmerge v17.0.0 ('Be Ur Friend') 64-bit
Writing library : libebml v1.3.5 + libmatroska v1.4.8
Video
ID : 1
Format : AVC
Format/Info : Advanced Video Codec
Format profile : [email protected]
Format settings : CABAC / 16 Ref Frames
Format settings, CABAC : Yes
Format settings, RefFrames : 16 frames
Codec ID : V_MPEG4/ISO/AVC
Duration : 1 h 31 min
Bit rate : 3 363 kb/s
Width : 692 pixels
Height : 566 pixels
Display aspect ratio : 4:3
Frame rate mode : Constant
Frame rate : 25.000 FPS
Color space : YUV
Chroma subsampling : 4:2:0
Bit depth : 8 bits
Scan type : Progressive
Bits/(Pixel*Frame) : 0.343
Stream size : 2.15 GiB (85%)
Writing library : x264 core 152 r2851kMod ba24899
Encoding settings : cabac=1 / ref=16 / deblock=1:-3:-2 / analyse=0x3:0x133 / me=umh / subme=11 / psy=1 / fade_compensate=0.00 / psy_rd=1.00:0.00 / mixed_ref=1 / me_range=48 / chroma_me=1 / trellis=2 / 8x8dct=1 / cqm=0 / deadzone=21,11 / fast_pskip=0 / chroma_qp_offset=-2 / threads=12 / lookahead_threads=3 / sliced_threads=0 / nr=0 / decimate=1 / interlaced=0 / bluray_compat=0 / constrained_intra=0 / bframes=14 / b_pyramid=2 / b_adapt=2 / b_bias=0 / direct=3 / weightb=1 / open_gop=0 / weightp=0 / keyint=250 / keyint_min=25 / scenecut=40 / intra_refresh=0 / rc=crf / mbtree=0 / crf=19.0000 / qcomp=0.60 / qpmin=0 / qpmax=69 / qpstep=4 / ip_ratio=1.40 / pb_ratio=1.30 / aq=3:0.75
Default : Yes
Forced : No
Color range : Limited
Color primaries : BT.601 PAL
Transfer characteristics : BT.470 System B, BT.470 System G
Matrix coefficients : BT.470 System B, BT.470 System G
Audio #1
ID : 2
Format : AC-3
Format/Info : Audio Coding 3
Format settings, Endianness : Big
Codec ID : A_AC3
Duration : 1 h 31 min
Bit rate mode : Constant
Bit rate : 224 kb/s
Channel(s) : 2 channels
Channel positions : Front: L R
Sampling rate : 48.0 kHz
Frame rate : 31.250 FPS (1536 SPF)
Bit depth : 16 bits
Compression mode : Lossy
Stream size : 147 MiB (6%)
Title : Закадровый | Александр Кашкин | VHS Hi-Fi
Language : Russian
Service kind : Complete Main
Default : Yes
Forced : No
Audio #2
ID : 3
Format : AC-3
Format/Info : Audio Coding 3
Format settings, Endianness : Big
Codec ID : A_AC3
Duration : 1 h 31 min
Bit rate mode : Constant
Bit rate : 192 kb/s
Channel(s) : 1 channel
Channel positions : Front: C
Sampling rate : 48.0 kHz
Frame rate : 31.250 FPS (1536 SPF)
Bit depth : 16 bits
Compression mode : Lossy
Stream size : 126 MiB (5%)
Title : Закадровый | Малое предприятие "Мега" | VHS
Language : Russian
Service kind : Complete Main
Default : No
Forced : No
Audio #3
ID : 4
Format : AC-3
Format/Info : Audio Coding 3
Format settings, Endianness : Big
Codec ID : A_AC3
Duration : 1 h 31 min
Bit rate mode : Constant
Bit rate : 192 kb/s
Channel(s) : 2 channels
Channel positions : Front: L R
Sampling rate : 48.0 kHz
Frame rate : 31.250 FPS (1536 SPF)
Bit depth : 16 bits
Compression mode : Lossy
Stream size : 126 MiB (5%)
Title : Original | DVD R1
Language : English
Service kind : Complete Main
Default : No
Forced : No

Скриншоты

Fullscreen VS Widescreen

Fullscreen VHS
-Widescreen DVD

Скан обложки VHS

If your ratio falls below 0.3, you will not be able to download Torrents! More about the rating.

[erzsebet.pl].t655.torrent
Torrent: Registered [ 2017-12-02 17:13 ] · EA56A84954DEB517BE8D0C9762898A046F2C03D8

Download .torrent

Download

13 KB

Status: checked
Completed: 16 times
Size: 2.54 GB
terms.php
[Profile] [PM]
Display posts:    
Reply to topic

Current time is: 23-Jan 23:42

All times are UTC ± 0



You cannot post new topics in this forum
You cannot reply to topics in this forum
You cannot edit your posts in this forum
You cannot delete your posts in this forum
You cannot vote in polls in this forum
You cannot attach files in this forum
You can download files in this forum