Тим / Tim (Майкл Пейт / Michael Pate) [1979, Драма, Мелодрама, HDRip] AVO + Original Eng + Sub Rus

Reply to topic
DL-List and Torrent activity
Size:  1.47 GB   |    Registered:  3 years 1 month   |    Completed:  16 times

Seeder not seen: Never

 
   
 
 
Author Message

erzsebet.org ®

Longevity: 3 years 1 month

Posts: 47596

Post 02-Dec-2017 17:13

[Quote]

Тим / Tim«Случайная встреча и невозможная история любви»
-
Год выпуска: 1979
Страна: Австралия
Жанр: Драма, Мелодрама
Продолжительность: 01:48:22
Перевод: Авторский (одноголосый закадровый) - Василий Горчаков
Русские субтитры: Да, есть. Перевод и тайминг: moleva
Режиссер: Майкл Пэйт
В ролях: Пайпер Лори, Мэл Гибсон, Alwyn Kurts, Пэт Эвисон, Питер Гуинн, Дебора Кеннеди, Дэвид Фостер, Майкл Колфилд, Марго Ли, Джеймс Кондон
Описание: Тим — очень добрый молодой человек, с ограниченными умственными способностями. Он работает на стройке, и друзья часто подшучивают над ним. Мэри, женщина гораздо старше его, однажды приглашает Тима поработать в ее саду.
Работа на выходные затягивается на несколько недель. Эти совершенно разные люди, постепенно узнают друг друга, и между ними возникает взаимное чувство. Однако жители маленького городка начинают судачить и бросать откровенно осуждающие взгляды…

На непереведенные места, авторские субтитры moleva
Сэмпл: http://multi-up.com/1174789
Исходник: 1080p
Качество: HDRip
Формат: AVI
Видео кодек: XviD
Аудио кодек: AC3
Видео: 720x384 (1.88:1), 23.976 fps, XviD MPEG-4 ~1539 kbps avg, 0.23 bit/pixel
Аудио: 48 kHz, AC3 Dolby Digital, 2/0 (L,R) ch, ~192.00 kbps avg
Аудио: 48 kHz, AC3 Dolby Digital, 2/0 (L,R) ch, ~192.00 kbps avg

МедиаИнфо

Общее
Полное имя : D:\Фильмы\Tim.1979.HDRip.XviD\Tim.1979.HDRip.XviD.avi
Формат : AVI
Формат/Информация : Audio Video Interleave
Размер файла : 1,47 Гбайт
Продолжительность : 1 ч. 48 м.
Общий поток : 1935 Кбит/сек
Программа кодирования : VirtualDubMod 1.5.10.2 (build 2540/release)
Библиотека кодирования : VirtualDubMod build 2540/release
Видео
Идентификатор : 0
Формат : MPEG-4 Visual
Профиль формата : Advanced [email protected]
Параметр BVOP формата : 1
Параметр QPel формата : Нет
Параметр GMC формата : Без точки перехода
Параметр матрицы формата : Выборочная
Идентификатор кодека : XVID
Идентификатор кодека/Подсказка : XviD
Продолжительность : 1 ч. 48 м.
Битрейт : 1537 Кбит/сек
Ширина : 720 пикселей
Высота : 384 пикселя
Соотношение сторон : 1,85:1
Частота кадров : 23,976 кадра/сек
Цветовое пространство : YUV
Субдискретизация насыщенности : 4:2:0
Битовая глубина : 8 бит
Тип развёртки : Прогрессивная
Метод сжатия : С потерями
Бит/(Пиксели*Кадры) : 0.232
Размер потока : 1,16 Гбайт (79%)
Библиотека кодирования : XviD 1.2.1 (UTC 2008-12-04)
Аудио #1
Идентификатор : 1
Формат : AC-3
Формат/Информация : Audio Coding 3
Расширение режима : CM (complete main)
Параметр Endianness формата : Big
Идентификатор кодека : 2000
Продолжительность : 1 ч. 48 м.
Вид битрейта : Постоянный
Битрейт : 192 Кбит/сек
Каналы : 2 канала
Расположение каналов : Front: L R
Частота : 48,0 КГц
Битовая глубина : 16 бит
Метод сжатия : С потерями
Размер потока : 149 Мбайт (10%)
Выравнивание : Разделение по промежуткам
Продолжительность промежутка : 42 мс. (1,00 видеокадр)
Время предзагрузки промежутка : 500 мс.
Аудио #2
Идентификатор : 2
Формат : AC-3
Формат/Информация : Audio Coding 3
Расширение режима : CM (complete main)
Параметр Endianness формата : Big
Идентификатор кодека : 2000
Продолжительность : 1 ч. 48 м.
Вид битрейта : Постоянный
Битрейт : 192 Кбит/сек
Каналы : 2 канала
Расположение каналов : Front: L R
Частота : 48,0 КГц
Битовая глубина : 16 бит
Метод сжатия : С потерями
Размер потока : 149 Мбайт (10%)
Выравнивание : Разделение по промежуткам
Продолжительность промежутка : 42 мс. (1,00 видеокадр)
Время предзагрузки промежутка : 500 мс.

Скриншоты

Раздача от группы

If your ratio falls below 0.3, you will not be able to download Torrents! More about the rating.

[erzsebet.pl].t659.torrent
Torrent: Registered [ 2017-12-02 17:13 ] · 49F0923875257CAB07AB2CB5B18F91E27D104DA1

Download .torrent

Download

15 KB

Status: checked
Completed: 16 times
Size: 1.47 GB
terms.php
[Profile] [PM]
Display posts:    
Reply to topic

Current time is: 18-Jan 01:21

All times are UTC ± 0



You cannot post new topics in this forum
You cannot reply to topics in this forum
You cannot edit your posts in this forum
You cannot delete your posts in this forum
You cannot vote in polls in this forum
You cannot attach files in this forum
You can download files in this forum