Человек тьмы II: Возвращение Дюрана / Darkman II: The Return of Durant (Брэдфорд Мэй / Bradford May) [1994, США, Канада, фантастика, VHSRip-AVC] [Promo copy] AVO (Андрей Гаврилов)

Reply to topic
DL-List and Torrent activity
Size:  2.06 GB   |    Registered:  3 years 1 month   |    Completed:  16 times

Seeder not seen: Never

 
   
 
 
Author Message

erzsebet.org ®

Longevity: 3 years 1 month

Posts: 47596

Post 02-Dec-2017 17:17

[Quote]

Человек тьмы II: Возвращение Дюрана / Darkman II: The Return of Durant / Promo copy
Страна: США, Канада
Жанр: фантастика
Год выпуска: 1994
Продолжительность: 01:32:29
Перевод: Авторский (одноголосый закадровый) Андрей Гаврилов
Субтитры: нет
Оригинальная аудиодорожка: нет
Режиссер: Брэдфорд Мэй / Bradford May
В ролях: Ларри Дрэйк, Ким Делани, Рене О’Коннор, Рене О’Коннор, Арнольд Вослу...
Описание: С помощью своего друга-ученого, обезображенный доктор Уэстлэйк нашел способ, благодаря которому он мог бы вернуть свой первозданный облик. Но именно в этот момент безжалостный рок заставляет Пэйтона снова пережить трагедию, которая постигла его в первой части картины. Более того, оказывается, что покойный садист Дюран жив, здоров, и снова полон преступных планов. Доктор Уэстлэйк решает окончательно и бесповоротно разделаться с жутким Дюраном и его страшной компанией. Начинается кровавая схватка со злом, в которой Человек Тьмы пойдет до самого конца.
Доп. информация:
Оцифровка пиратской VHS из собственной коллекции.
Promo copy!
Сэмпл: http://sendfile.su/1378732
Качество видео: VHSRip-AVC
Формат видео: MP4
Видео: AVC, 720х576, 5:4, 25,000 кадров/сек, 3000 Кбит/сек
Аудио: AAC, 64,0 КГц, 192 Кбит/сек, 2.0 (псевдостерео)

MediaInfo

General
Complete name : K:\torrents\Darkman II The Return of Durant\Darkman II The Return of Durant.mp4
Format : MPEG-4
Format profile : Base Media
Codec ID : isom (isom/iso2/avc1/mp41)
File size : 2.06 GiB
Duration : 1 h 32 min
Overall bit rate : 3 196 kb/s
Writing application : Lavf57.25.100
Video
ID : 1
Format : AVC
Format/Info : Advanced Video Codec
Format profile : [email protected]
Format settings : 1 Ref Frames
Format settings, CABAC : No
Format settings, RefFrames : 1 frame
Format settings, GOP : M=1, N=50
Codec ID : avc1
Codec ID/Info : Advanced Video Coding
Duration : 1 h 32 min
Bit rate : 3 000 kb/s
Width : 720 pixels
Height : 576 pixels
Display aspect ratio : 5:4
Frame rate mode : Constant
Frame rate : 25.000 FPS
Standard : PAL
Color space : YUV
Chroma subsampling : 4:2:0
Bit depth : 8 bits
Scan type : Progressive
Bits/(Pixel*Frame) : 0.289
Stream size : 1.94 GiB (94%)
Audio
ID : 2
Format : AAC
Format/Info : Advanced Audio Codec
Format profile : LTP
Codec ID : mp4a-40-4
Duration : 1 h 32 min
Bit rate mode : Constant
Bit rate : 192 kb/s
Channel(s) : 2 channels
Channel(s)_Original : 3 channels
Channel positions : Front: L C R
Sampling rate : 64.0 kHz
Frame rate : 62.500 FPS (1024 SPF)
Compression mode : Lossy
Stream size : 125 MiB (6%)
Default : Yes
Alternate group : 1

Скриншот c названием фильма

If your ratio falls below 0.3, you will not be able to download Torrents! More about the rating.

[erzsebet.pl].t660.torrent
Torrent: Registered [ 2017-12-02 17:17 ] · 5809E26F14B1E2C92525ACC1470FB04858B6844C

Download .torrent

Download

11 KB

Status: checked
Completed: 16 times
Size: 2.06 GB
terms.php
[Profile] [PM]
Display posts:    
Reply to topic

Current time is: 17-Jan 17:49

All times are UTC ± 0



You cannot post new topics in this forum
You cannot reply to topics in this forum
You cannot edit your posts in this forum
You cannot delete your posts in this forum
You cannot vote in polls in this forum
You cannot attach files in this forum
You can download files in this forum