Рокки 4 / Rocky IV (Сильвестр Сталлоне / Sylvester Stallone) [1985, США, спорт, драма, BDRip] AVO (Андрей Гаврилов)

Reply to topic
DL-List and Torrent activity
Size:  1.46 GB   |    Registered:  3 years 1 month   |    Completed:  16 times

Seeder not seen: Never

 
   
 
 
Author Message

erzsebet.org ®

Longevity: 3 years 1 month

Posts: 47596

Post 02-Dec-2017 17:12

[Quote]

Рокки 4 / Rocky IV
Страна: США
Жанр: спорт, драма
Год выпуска: 1985
Продолжительность: 01:31:31
Перевод: Авторский (одноголосый закадровый) Андрей Гаврилов
Субтитры: нет
Режиссер: Сильвестр Сталлоне / Sylvester Stallone
В ролях: Сильвестр Сталлоне, Талия Шайр, Берт Янг, Карл Уэзерс, Бриджит Нильсен, Тони Бертон, Майкл Патаки, Дольф Лундгрен, Стью Нэхен
Описание: Новые бои ожидают прославленного Рокки Бальбоа, но пока он даже не представляет, кем окажется его будущий соперник. Боксер счастливо живет в Филадельфии с любимой женой Адриан и готовится к годовщине своей свадьбы, а между тем в Штаты прилетает советский чемпион, 120-килограмовый капитан Иван Драго, вызывающий на поединок американских бойцов. Один вид русского богатыря внушает страх, но давний друг и партнер Рокки Аполло Крид, охваченный патриотическим порывом, принимает вызов боксера из СССР. Несмотря на скверные предчувствия, Рокки даже помогает приятелю в организации боя, который Крид хочет превратить в шоу. Однако яркого зрелища не получается: Иван Драго наносит американцу серию чудовищных ударов, один из которых становится решающим – Крид умирает на ринге, не позволяя секунданту выбросить полотенце. После его смерти, чувствующий свою вину, Рокки сам желает драться с советским боксером. Однако для этого нужно отказаться от титула, проститься с женой и сыном, и лететь в далекую Москву, где назначен решающий поединок....
Доп. информация: Выражаю огромную благодарность vilkus, за предоставленную дорогу с Андреем Гавриловым из личного архива.
Сэмпл: http://multi-up.com/1174537
Качество видео: BDRip (Rokki.Antologij.1976-1990.AVC.Blu-ray.1080p.HDCLUB )
Формат видео: AVI
Видео: XviD, 704x384, (1,85:1), 23,976 fps, 2053 Кбит/с, 8 бит, 0.32 bit/pixel
Аудио: Русский (АС3, 2 ch (Front: L R), 48,0 KHz, 224 Kbps)

MediaInfo

Общее
Полное имя : D:\Видеофильмы\В и д е о\Рокки_4_(спорт, драма, 1985 год)_Leonard_Lew\Рокки_4_(спорт, драма, 1985 год)_Leonard_Lew.avi
Формат : AVI
Формат/Информация : Audio Video Interleave
Размер файла : 1,46 Гбайт
Продолжительность : 1 ч. 31 м.
Общий поток : 2286 Кбит/сек
Программа кодирования : VirtualDubMod 1.5.10.2 (build 2540/release)
Библиотека кодирования : VirtualDubMod build 2540/release
Видео
Идентификатор : 0
Формат : MPEG-4 Visual
Профиль формата : Advanced [email protected]
Параметр BVOP формата : 1
Параметр QPel формата : Нет
Параметр GMC формата : Без точки перехода
Параметр матрицы формата : Выборочная
Идентификатор кодека : XVID
Идентификатор кодека/Подсказка : XviD
Продолжительность : 1 ч. 31 м.
Битрейт : 2053 Кбит/сек
Ширина : 704 пикселя
Высота : 384 пикселя
Соотношение сторон : 1,85:1
Частота кадров : 23,976 (24000/1001) кадра/сек
Цветовое пространство : YUV
Субдискретизация насыщенности : 4:2:0
Битовая глубина : 8 бит
Тип развёртки : Прогрессивная
Метод сжатия : С потерями
Бит/(Пиксели*Кадры) : 0.317
Размер потока : 1,31 Гбайт (90%)
Библиотека кодирования : XviD 1.2.1 (UTC 2008-12-04)
Аудио
Идентификатор : 1
Формат : AC-3
Формат/Информация : Audio Coding 3
Расширение режима : CM (complete main)
Параметр Endianness формата : Big
Идентификатор кодека : 2000
Продолжительность : 1 ч. 31 м.
Вид битрейта : Постоянный
Битрейт : 224 Кбит/сек
Каналы : 2 канала
Расположение каналов : Front: L R
Частота : 48,0 КГц
Частота кадров : 31,250 кадров/сек (1536 spf)
Метод сжатия : С потерями
Размер потока : 147 Мбайт (10%)
Выравнивание : Разделение по промежуткам
Продолжительность промежутка : 42 мс. (1,00 видеокадр)
Время предзагрузки промежутка : 500 мс.

Скриншот c названием фильма

Скриншоты

If your ratio falls below 0.3, you will not be able to download Torrents! More about the rating.

[erzsebet.pl].t664.torrent
Torrent: Registered [ 2017-12-02 17:13 ] · A4B76240A3ECEE2AFCAE5D0E982C321CE5B8C410

Download .torrent

Download

15 KB

Status: checked
Completed: 16 times
Size: 1.46 GB
terms.php
[Profile] [PM]
Display posts:    
Reply to topic

Current time is: 28-Jan 07:38

All times are UTC ± 0



You cannot post new topics in this forum
You cannot reply to topics in this forum
You cannot edit your posts in this forum
You cannot delete your posts in this forum
You cannot vote in polls in this forum
You cannot attach files in this forum
You can download files in this forum