Воздушная каракатица / Небесные бандиты / Sky Bandits / Gunbus (Зоран Перисик / Zoran Perisic) [1986, Великобритания, Военный, приключения, боевик, комедия, WEB-DLRip] AVO (Сергей Визгунов)

Reply to topic
DL-List and Torrent activity
Size:  1.37 GB   |    Registered:  3 years 1 month   |    Completed:  16 times

Seeder not seen: Never

 
   
 
 
Author Message

erzsebet.org ®

Longevity: 3 years 1 month

Posts: 47596

Post 02-Dec-2017 17:12

[Quote]

Воздушная каракатица / Небесные бандиты / Sky Bandits / Gunbus
«There's a new kind of adventure in the air»
Страна: Великобритания
Жанр: Военный, приключения, боевик, комедия
Год выпуска: 1986
Продолжительность: 01:29:25
Перевод: Авторский (одноголосый закадровый) Сергей Визгунов
Субтитры: нет
Режиссер: Зоран Перисик / Zoran Perisic
В ролях: Скотт Макгиннис, Джефри Остерхейдж, Рональд Лейси, Майлз Андерсон, Валери Стеффен, Ингрид Хельд, Николас Линдхерст, Кит Бакли, Конрад Эсквит
Описание: Все начинается в Америке. Три маленьких городка один за другим потрясают невероятные взрывы банков. Это - дело рук двух неразлучных друзей-хулиганов. Барни и Люк грабят банки, пока, наконец, не попадаются в руки властей. Не желая попасть в тюрьму, им приходится завербоваться в армию и отправиться на Первую мировую войну. Франция, фронт и ад… Барни и Люк могут дезертировать в любой момент, но у них есть одна мечта. Увидеть Париж...
Доп. информация: Дорожка с С. Визгуновым синхронизирована и наложена ale_x2008 при помощи Sony Vegas и VirtualDubMod.
За предоставленную дорожку благодарим - dayanat76. Новый видеоряд (исходник - Gunbus.1986.1080p.AMZN.WEB-DL.DDP2.0.H.264-NTb.mkv на попкорне)
P.S. 01:05:23 - 01:05:42; 01:24:36 - 01:25:27 - фрагменты без перевода.
Релиз
Сэмпл: https://yadi.sk/i/cjvqEo3G3PKqQ9
Качество видео: WEB-DLRip
Формат видео: AVI
Видео: XviD build 73, 720x400 (1.80:1), 25 fps, 1986 kbps avg, 0.28 bit/pixel
Аудио: AC3 Dolby Digital, 48000Hz 2/0 (L,R) ch (stereo), 192.00 kbps avg

MediaInfo

Воздушная каракатица (Sky Bandits) [by ale_x2008].avi
Format : AVI
Format/Info : Audio Video Interleave
File size : 1.37 GiB
Duration : 1 h 29 min
Overall bit rate : 2 188 kb/s
Movie name : Воздушная каракатица (Sky Bandits) [by ale_x2008]
Director : by ale_x2008
Writing application : VirtualDubMod 1.5.10.2 (build 2540/release)
Copyright : Edich2
Comment : erzsebet.org
Video
ID : 0
Format : MPEG-4 Visual
Format profile : Advanced [email protected]
Format settings, BVOP : 2
Format settings, QPel : No
Format settings, GMC : No warppoints
Format settings, Matrix : Custom
Codec ID : XVID
Codec ID/Hint : XviD
Duration : 1 h 29 min
Bit rate : 1 986 kb/s
Width : 720 pixels
Height : 400 pixels
Display aspect ratio : 16:9
Frame rate : 25.000 FPS
Color space : YUV
Chroma subsampling : 4:2:0
Bit depth : 8 bits
Scan type : Progressive
Compression mode : Lossy
Bits/(Pixel*Frame) : 0.276
Stream size : 1.24 GiB (91%)
Writing library : XviD 73
Audio
ID : 1
Format : AC-3
Format/Info : Audio Coding 3
Format settings, Endianness : Big
Codec ID : 2000
Duration : 1 h 29 min
Bit rate mode : Constant
Bit rate : 192 kb/s
Channel(s) : 2 channels
Channel positions : Front: L R
Sampling rate : 48.0 kHz
Frame rate : 31.250 FPS (1536 spf)
Bit depth : 16 bits
Compression mode : Lossy
Stream size : 123 MiB (9%)
Alignment : Split accross interleaves
Interleave, duration : 40 ms (1.00 video frame)
Interleave, preload duratio : 500 ms
Service kind : Complete Main

Скриншоты


If your ratio falls below 0.3, you will not be able to download Torrents! More about the rating.

[erzsebet.pl].t666.torrent
Torrent: Registered [ 2017-12-02 17:13 ] · BB7BBC0B21C10F31D9BC8A7015FAF3C12722142F

Download .torrent

Download

14 KB

Status: checked
Completed: 16 times
Size: 1.37 GB
terms.php
[Profile] [PM]
Display posts:    
Reply to topic

Current time is: 18-Jan 01:24

All times are UTC ± 0



You cannot post new topics in this forum
You cannot reply to topics in this forum
You cannot edit your posts in this forum
You cannot delete your posts in this forum
You cannot vote in polls in this forum
You cannot attach files in this forum
You can download files in this forum