Улыбка, как у тебя / A Smile Like Yours (Кит Сэмплз / Keith Samples) [1997, США, Романтическая комедия, DVDRip] AVO (Павел Санаев)

Reply to topic
DL-List and Torrent activity
Size:  744 MB   |    Registered:  3 years 1 month   |    Completed:  16 times

Seeder not seen: Never

 
   
 
 
Author Message

erzsebet.org ®

Longevity: 3 years 1 month

Posts: 47596

Post 02-Dec-2017 17:17

[Quote]

Улыбка, как у тебя / A Smile Like Yours
«A comedy about the inconceivable»
Страна: США
Жанр: Романтическая комедия
Год выпуска: 1997
Продолжительность: 01:37:49
Перевод: Авторский (одноголосый закадровый) Павел Санаев
Субтитры: нет
Режиссер: Кит Сэмплз / Keith Samples
В ролях: Грег Киннир, Лорен Холли, Джоан Кьюсак, Джей Томас, Джилл Хеннесси, Кристофер МакДональд, Дональд Моффет, Франс Нуйен, Марианн Мюллерлейл, Шеридан Сэмплз
Описание: У семейной пары Робертсонов из Сан-Франциско все в порядке. Денни и Дженнифер любят друг друга, у них есть все: милый дом, интересная работа и преданные друзья. Почти идеальный мир… И для полного счастья Дженнифер решила завести ребенка.
Доп. информация: Дорожка с П. Санаевым синхронизирована и наложена ale_x2008 при помощи Adobe Audition, Sony Vegas и VirtualDubMod. Восстановлен правильный тон переводчика.
За оцифрованную с VHS дорожку благодарим - серый75
Релиз
Сэмпл: https://yadi.sk/i/74btymX23PpMpq
Качество видео: DVDRip
Формат видео: AVI
Видео: XviD build 47, 672x288 (2.33:1, 23.976 fps, 861 kbps avg, 0.19 bit/pixel
Аудио: AC3 Dolby Digital, 48000Hz, 2/0 (L,R) ch (mono), 192.00 kbps avg

MediaInfo

Улыбка, как у тебя - A Smile Like Yours (by ale_x2008).avi
Format : AVI
Format/Info : Audio Video Interleave
File size : 744 MiB
Duration : 1 h 37 min
Overall bit rate : 1 063 kb/s
Movie name : Улыбка, как у тебя - A Smile Like Yours (by ale_x2008)
Director : by ale_x2008
Writing application : VirtualDubMod 1.5.10.2 (build 2540/release)
Copyright : Edich2
Comment : erzsebet.org
Video
ID : 0
Format : MPEG-4 Visual
Format profile : Advanced [email protected]
Format settings, BVOP : 2
Format settings, QPel : No
Format settings, GMC : No warppoints
Format settings, Matrix : Default (H.263)
Codec ID : XVID
Codec ID/Hint : XviD
Duration : 1 h 37 min
Bit rate : 861 kb/s
Width : 672 pixels
Height : 288 pixels
Display aspect ratio : 2.35:1
Frame rate : 23.976 (24000/1001) FPS
Color space : YUV
Chroma subsampling : 4:2:0
Bit depth : 8 bits
Scan type : Progressive
Compression mode : Lossy
Bits/(Pixel*Frame) : 0.186
Stream size : 603 MiB (81%)
Writing library : XviD 1.2.0.dev47 (UTC 2006-11-01)
Audio
ID : 1
Format : AC-3
Format/Info : Audio Coding 3
Format settings, Endianness : Big
Codec ID : 2000
Duration : 1 h 37 min
Bit rate mode : Constant
Bit rate : 192 kb/s
Channel(s) : 2 channels
Channel positions : Front: L R
Sampling rate : 48.0 kHz
Frame rate : 31.250 FPS (1536 spf)
Bit depth : 16 bits
Compression mode : Lossy
Stream size : 134 MiB (18%)
Alignment : Split accross interleaves
Interleave, duration : 42 ms (1.00 video frame)
Interleave, preload duratio : 500 ms
Service kind : Complete Main

Скриншоты



If your ratio falls below 0.3, you will not be able to download Torrents! More about the rating.

[erzsebet.pl].t667.torrent
Torrent: Registered [ 2017-12-02 17:17 ] · 1333CCD175AB15FF25263A6211B959AF1FD652EC

Download .torrent

Download

15 KB

Status: checked
Completed: 16 times
Size: 744 MB
terms.php
[Profile] [PM]
Display posts:    
Reply to topic

Current time is: 18-Jan 00:58

All times are UTC ± 0



You cannot post new topics in this forum
You cannot reply to topics in this forum
You cannot edit your posts in this forum
You cannot delete your posts in this forum
You cannot vote in polls in this forum
You cannot attach files in this forum
You can download files in this forum