Подожди до весны, Бандини / Wait Until Spring, Bandini (Доминик Дерюддер / Dominique Deruddere) [1989, Бельгия, Франция, Италия, США, драма, DVDRip] VO + Sub Rus + Original Eng

Reply to topic
DL-List and Torrent activity
Size:  1.54 GB   |    Registered:  3 years 1 month   |    Completed:  16 times

Seeder not seen: Never

 
   
 
 
Author Message

erzsebet.org ®

Longevity: 3 years 1 month

Posts: 47596

Post 02-Dec-2017 17:12

[Quote]

Подожди до весны, Бандини / Wait Until Spring, Bandini
Страна: Бельгия, Франция, Италия, США
Жанр: драма
Год выпуска: 1989
Продолжительность: 01:39:24
Перевод: Одноголосый закадровый
Субтитры: русские
Оригинальная аудиодорожка: английский
Режиссер: Доминик Дерюддер / Dominique Deruddere
В ролях: Джо Мантенья, Орнелла Мути, Фэй Данауэй, Берт Янг, Майкл Бэколл, Дэниэл Уилсон, Алекс Винсент, Таня Лопер, Рената Ванни, Франсуа Букелаэрс
Описание: Действие фильма происходит в 20-е годы XX века в Колорадо. Семья итальянских иммигрантов Бандини с трудом сводит концы с концами. Глава семьи - Свево Бандини, безработный каменщик, находит утешение в алкоголе и играх. Он знакомится с богатой вдовой, ради которой готов оставить жену Марию и троих сыновей...
Доп. информация: Фильм взят отсюда http://erzsebet.org/forum/viewtopic.php?t=5367012
Сэмпл: http://multi-up.com/1174475
Качество видео: DVDRip
Формат видео: AVI
Видео: 656x400 (1.64:1), 25.000 fps, XviD build 67 ~1759 kbps avg, 0.27 bit/pixel
Аудио 1: 48 kHz, AC3 Dolby Digital, 2/0 (L,R) ch, ~224.00 kbps avg(Русский)
Аудио 2: 48 kHz, AC3 Dolby Digital, 2/0 (L,R) ch, ~224.00 kbps avg(Английский)
Формат субтитров: softsub (SRT)
Доп. информация о субтитрах: Русские внешние (Антон Каптелов)

MediaInfo

Общее
Полное имя : F:\С моей озвучкой\Подожди до весны, Бандини\Wait Until Spring, Bandini.avi
Формат : AVI
Формат/Информация : Audio Video Interleave
Размер файла : 1,54 Гбайт
Продолжительность : 1 ч. 39 м.
Общий поток : 2223 Кбит/сек
Программа кодирования : VirtualDubModRus 1.5.10.2 (build 2542/release)
Библиотека кодирования : VirtualDubMod build 2542/release
Видео
Идентификатор : 0
Формат : MPEG-4 Visual
Профиль формата : Advanced [email protected]
Параметр BVOP формата : 2
Параметр QPel формата : Нет
Параметр GMC формата : Без точки перехода
Параметр матрицы формата : Default (MPEG)
Идентификатор кодека : XVID
Идентификатор кодека/Подсказка : XviD
Продолжительность : 1 ч. 39 м.
Битрейт : 1761 Кбит/сек
Ширина : 656 пикселей
Высота : 400 пикселей
Соотношение сторон : 16:10
Частота кадров : 25,000 кадров/сек
Цветовое пространство : YUV
Субдискретизация насыщенности : 4:2:0
Битовая глубина : 8 бит
Тип развёртки : Прогрессивная
Метод сжатия : С потерями
Бит/(Пиксели*Кадры) : 0.268
Размер потока : 1,22 Гбайт (79%)
Библиотека кодирования : XviD 67
Аудио #1
Идентификатор : 1
Формат : AC-3
Формат/Информация : Audio Coding 3
Параметр Endianness формата : Big
Идентификатор кодека : 2000
Продолжительность : 1 ч. 39 м.
Вид битрейта : Постоянный
Битрейт : 224 Кбит/сек
Каналы : 2 канала
Расположение каналов : Front: L R
Частота : 48,0 КГц
Частота кадров : 31,250 кадров/сек (1536 SPF)
Битовая глубина : 16 бит
Метод сжатия : С потерями
Размер потока : 159 Мбайт (10%)
Выравнивание : Разделение по промежуткам
Продолжительность промежутка : 40 мс. (1,00 видеокадр)
Время предзагрузки промежутка : 500 мс.
ServiceKind/String : Complete Main
Аудио #2
Идентификатор : 2
Формат : AC-3
Формат/Информация : Audio Coding 3
Параметр Endianness формата : Big
Идентификатор кодека : 2000
Продолжительность : 1 ч. 39 м.
Вид битрейта : Постоянный
Битрейт : 224 Кбит/сек
Каналы : 2 канала
Расположение каналов : Front: L R
Частота : 48,0 КГц
Частота кадров : 31,250 кадров/сек (1536 SPF)
Битовая глубина : 16 бит
Метод сжатия : С потерями
Размер потока : 159 Мбайт (10%)
Выравнивание : Соединение по промежуткам
Продолжительность промежутка : 40 мс. (1,00 видеокадр)
Время предзагрузки промежутка : 512 мс.
ServiceKind/String : Complete Main

Скриншоты

If your ratio falls below 0.3, you will not be able to download Torrents! More about the rating.

[erzsebet.pl].t668.torrent
Torrent: Registered [ 2017-12-02 17:13 ] · 03386A44592D655B6A2D394536FD6C7176531694

Download .torrent

Download

16 KB

Status: checked
Completed: 16 times
Size: 1.54 GB
terms.php
[Profile] [PM]
Display posts:    
Reply to topic

Current time is: 21-Jan 17:09

All times are UTC ± 0



You cannot post new topics in this forum
You cannot reply to topics in this forum
You cannot edit your posts in this forum
You cannot delete your posts in this forum
You cannot vote in polls in this forum
You cannot attach files in this forum
You can download files in this forum