Дух мщения / Перехватчик / The Wraith (Майк Марвин / Mike Marvin) [1986, США, фантастика, боевик, триллер, BDRip] AVO (Юрий Немахов) + AVO (Антон Алексеев) + VO (Не опознан - VHS)

Reply to topic
DL-List and Torrent activity
Size:  1.48 GB   |    Registered:  3 years 1 month   |    Completed:  16 times

Seeder not seen: Never

 
   
 
 
Author Message

erzsebet.org ®

Longevity: 3 years 1 month

Posts: 47596

Post 02-Dec-2017 17:12

[Quote]

Дух мщения / Перехватчик / The Wraith
Страна: США
Жанр: фантастика, боевик, триллер
Год выпуска: 1986
Продолжительность: 01:33:11
Перевод: Авторский (одноголосый закадровый) Юрий Немахов
Перевод 2: Авторский (одноголосый закадровый) Антон Алексеев
Перевод 3: Одноголосый закадровый Не опознан (VHS) (в конце вставки Немахова)
Субтитры: нет
Режиссер: Майк Марвин / Mike Marvin
В ролях: Чарли Шин, Ник Кассаветис, Шерилин Фенн, Рэнди Куэйд, Мэттью Бэрри, Дэвид Шерилл, Джэми Бозиан, Клинт Ховард, Гриффин О’Нил
Описание: Небольшой городок одного из штатов Америки, полностью контролируется бандой гонщиков, не дающих спокойно жить населению. Паккард Уолш и его ребята не гнушаются краж и разбоев, а также они любят останавливать проезжающие машины и устраивать соревнования на скорость с не желающими того водителями. Ставкой являет их авто, и во всех случаях победа оказывается за злодеями. Есть у Паккарда и одна слабость – красавица Кэрри Джонсон, встречающаяся с парнем по имени Джейми. Естественно, добиваться девушку честными методами – не стиль Уолша, поэтому Джейми убивают. Брат жертвы и Кэрри – единственные, кто не боятся высказывать недовольство нынешним положением города открыто. Даже смерть возлюбленного не повлияла на Джонсон: она так и не отдала предпочтение Паккарду. Вместо этого Кэрри проявляет симпатию к прибывшему совсем недавно в эти края Джейку. С его появлением гонщиков стал атаковать неизвестный мститель, разъезжающий на чёрном турбо-перехватчике. Уолш теряет людей, а незнакомец не спешит показывать лицо и побеждает более чем эффектно.....
Доп. информация: Выражаю благодарность Нордеру за синхронизацию звуковых дорожек с Алексеевым и VHS. За дороги с VHS и Алексеевым благодарим vilkus
Сэмпл: http://multi-up.com/1174418
Качество видео: BDRip (Исходник BDRemux 1080p)
Формат видео: AVI
Видео: XviD 73, 720x400, (16:9), 23,976 fps, 1584 Кбит/с, 8 бит, 0.23 bit/pixel
Аудио: Русский (АС3, 2 ch (Front: L R), 48,0 KHz, 224 Kbps)
Аудио 2: Русский (АС3, 2 ch (Front: L R), 48,0 KHz, 224 Kbps)
Аудио 3: Русский (АС3, 2 ch (Front: L R), 48,0 KHz, 224 Kbps)

MediaInfo

Общее
Полное имя : D:\Видеофильмы\В и д е о\Дух мщения (фантастика, боевик, триллер 1986 год).avi
Формат : AVI
Формат/Информация : Audio Video Interleave
Размер файла : 1,48 Гбайт
Продолжительность : 1 ч. 33 м.
Общий поток : 2274 Кбит/сек
Программа кодирования : VirtualDubMod 1.5.10.2 (build 2540/release)
Библиотека кодирования : VirtualDubMod build 2540/release
Видео
Идентификатор : 0
Формат : MPEG-4 Visual
Профиль формата : Advanced [email protected]
Параметр BVOP формата : 2
Параметр QPel формата : Нет
Параметр GMC формата : Без точки перехода
Параметр матрицы формата : Выборочная
Идентификатор кодека : XVID
Идентификатор кодека/Подсказка : XviD
Продолжительность : 1 ч. 33 м.
Битрейт : 1584 Кбит/сек
Ширина : 720 пикселей
Высота : 400 пикселей
Соотношение сторон : 16:9
Частота кадров : 23,976 (23976/1000) кадра/сек
Цветовое пространство : YUV
Субдискретизация насыщенности : 4:2:0
Битовая глубина : 8 бит
Тип развёртки : Прогрессивная
Метод сжатия : С потерями
Бит/(Пиксели*Кадры) : 0.229
Размер потока : 1,03 Гбайт (70%)
Библиотека кодирования : XviD 73
Аудио #1
Идентификатор : 1
Формат : AC-3
Формат/Информация : Audio Coding 3
Расширение режима : CM (complete main)
Параметр Endianness формата : Big
Идентификатор кодека : 2000
Продолжительность : 1 ч. 32 м.
Вид битрейта : Постоянный
Битрейт : 224 Кбит/сек
Каналы : 2 канала
Расположение каналов : Front: L R
Частота : 48,0 КГц
Частота кадров : 31,250 кадров/сек (1536 spf)
Метод сжатия : С потерями
Размер потока : 149 Мбайт (10%)
Выравнивание : Разделение по промежуткам
Продолжительность промежутка : 42 мс. (1,00 видеокадр)
Время предзагрузки промежутка : 500 мс.
Аудио #2
Идентификатор : 2
Формат : AC-3
Формат/Информация : Audio Coding 3
Расширение режима : CM (complete main)
Параметр Endianness формата : Big
Идентификатор кодека : 2000
Продолжительность : 1 ч. 33 м.
Вид битрейта : Постоянный
Битрейт : 224 Кбит/сек
Каналы : 2 канала
Расположение каналов : Front: L R
Частота : 48,0 КГц
Частота кадров : 31,250 кадров/сек (1536 spf)
Метод сжатия : С потерями
Размер потока : 149 Мбайт (10%)
Выравнивание : Разделение по промежуткам
Продолжительность промежутка : 42 мс. (1,00 видеокадр)
Время предзагрузки промежутка : 500 мс.
Аудио #3
Идентификатор : 3
Формат : AC-3
Формат/Информация : Audio Coding 3
Расширение режима : CM (complete main)
Параметр Endianness формата : Big
Идентификатор кодека : 2000
Продолжительность : 1 ч. 33 м.
Вид битрейта : Постоянный
Битрейт : 224 Кбит/сек
Каналы : 2 канала
Расположение каналов : Front: L R
Частота : 48,0 КГц
Частота кадров : 31,250 кадров/сек (1536 spf)
Метод сжатия : С потерями
Размер потока : 149 Мбайт (10%)
Выравнивание : Разделение по промежуткам
Продолжительность промежутка : 42 мс. (1,00 видеокадр)
Время предзагрузки промежутка : 500 мс.

Скриншот c названием фильма

Скриншоты

If your ratio falls below 0.3, you will not be able to download Torrents! More about the rating.

[erzsebet.pl].t672.torrent
Torrent: Registered [ 2017-12-02 17:13 ] · 74618486FA51486545458056781D802657366A06

Download .torrent

Download

15 KB

Status: checked
Completed: 16 times
Size: 1.48 GB
terms.php
[Profile] [PM]
Display posts:    
Reply to topic

Current time is: 22-Jan 23:03

All times are UTC ± 0



You cannot post new topics in this forum
You cannot reply to topics in this forum
You cannot edit your posts in this forum
You cannot delete your posts in this forum
You cannot vote in polls in this forum
You cannot attach files in this forum
You can download files in this forum