Прямая и явная угроза / Clear and Present Danger (Филлип Нойс / Phillip Noyce) [1994, США, триллер, боевик, VHSRip-AVC] [Promo copy] AVO (Андрей Гаврилов)

Reply to topic
DL-List and Torrent activity
Size:  3.15 GB   |    Registered:  3 years 1 month   |    Completed:  16 times

Seeder not seen: Never

 
   
 
 
Author Message

erzsebet.org ®

Longevity: 3 years 1 month

Posts: 47596

Post 02-Dec-2017 17:17

[Quote]

Прямая и явная угроза / Clear and Present Danger / Promo copy
Страна: США
Жанр: триллер, боевик
Год выпуска: 1994
Продолжительность: 02:21:06
Перевод: Авторский (одноголосый закадровый) Андрей Гаврилов
Субтитры: нет
Оригинальная аудиодорожка: нет
Режиссер: Филлип Нойс / Phillip Noyce
В ролях: Харрисон Форд, Уиллем Дефо, Энн Арчер, Жоаким де Алмейда, Генри Черни, Харрис Юлин, Дональд Моффет, Мигель Сандовал, Бенджамин Брэтт, Рэймонд Крус, Дин Джонс, Тора Бёрч, Энн Магнусон, Хоуп Лэнг, Том Тэмми, Тим Грим, Белита Морено, Джеймс Эрл Джонс, Хорхе Луке, Тед Рэйми, Вонди Куртис-Холл, Рекс Линн...
Описание: Джек Райан на этот раз оказывается во главе отдела разведки ЦРУ, и вхож в Овальный кабинет Белого Дома. Он вынужден бороться против колумбийских наркодельцов, не ведая, что его помощник по национальной безопасности и шеф ЦРУ проводят, с помощью наемников, боевые операции в Колумбии.
Награды и номинации:
Оскар, 1995 год
Номинация:
Лучший звук
Лучший монтаж звука
Премия канала «MTV», 1995 год
Номинация:
Лучшая экшн-сцена
Сатурн, 1995 год
Номинация:
Лучший приключенческий фильм, боевик или триллер
Доп. информация:
Оцифровка пиратской VHS из собственной коллекции.
Promo copy!
Сэмпл: http://sendfile.su/1378234
Качество видео: VHSRip-AVC
Формат видео: MP4
Видео: AVC, 720х576, 5:4, 25,000 кадров/сек, 3000 Кбит/сек
Аудио: AAC, 64,0 КГц, 192 Кбит/сек, 2.0 (псевдостерео)

MediaInfo

General
Complete name : K:\torrents\Clear and Present Danger\Clear and Present Danger.mp4
Format : MPEG-4
Format profile : Base Media
Codec ID : isom (isom/iso2/avc1/mp41)
File size : 3.15 GiB
Duration : 2 h 21 min
Overall bit rate : 3 196 kb/s
Writing application : Lavf57.25.100
Video
ID : 1
Format : AVC
Format/Info : Advanced Video Codec
Format profile : [email protected]
Format settings : 1 Ref Frames
Format settings, CABAC : No
Format settings, RefFrames : 1 frame
Format settings, GOP : M=1, N=50
Codec ID : avc1
Codec ID/Info : Advanced Video Coding
Duration : 2 h 21 min
Bit rate : 3 000 kb/s
Width : 720 pixels
Height : 576 pixels
Display aspect ratio : 5:4
Frame rate mode : Constant
Frame rate : 25.000 FPS
Standard : PAL
Color space : YUV
Chroma subsampling : 4:2:0
Bit depth : 8 bits
Scan type : Progressive
Bits/(Pixel*Frame) : 0.289
Stream size : 2.96 GiB (94%)
Audio
ID : 2
Format : AAC
Format/Info : Advanced Audio Codec
Format profile : LTP
Codec ID : mp4a-40-4
Duration : 2 h 21 min
Bit rate mode : Constant
Bit rate : 192 kb/s
Channel(s) : 2 channels
Channel(s)_Original : 3 channels
Channel positions : Front: L C R
Sampling rate : 64.0 kHz
Frame rate : 62.500 FPS (1024 SPF)
Compression mode : Lossy
Stream size : 191 MiB (6%)
Default : Yes
Alternate group : 1

Скриншот c названием фильма

If your ratio falls below 0.3, you will not be able to download Torrents! More about the rating.

[erzsebet.pl].t678.torrent
Torrent: Registered [ 2017-12-02 17:17 ] · 99A70502B377FB3707642577A887ECFB5BB5121A

Download .torrent

Download

16 KB

Status: checked
Completed: 16 times
Size: 3.15 GB
terms.php
[Profile] [PM]
Display posts:    
Reply to topic

Current time is: 20-Jan 07:11

All times are UTC ± 0



You cannot post new topics in this forum
You cannot reply to topics in this forum
You cannot edit your posts in this forum
You cannot delete your posts in this forum
You cannot vote in polls in this forum
You cannot attach files in this forum
You can download files in this forum