Большая стирка / La grande lessive (!) (Жан-Пьер Моки / Jean-Pierre Mocky) [1968, Франция, комедия, TVRip-AVC] MVO (Фильм-экспорт по заказу ТРК Останкино)

Reply to topic
DL-List and Torrent activity
Size:  2.1 GB   |    Registered:  3 years 1 month   |    Completed:  16 times

Seeder not seen: Never

 
   
 
 
Author Message

erzsebet.org ®

Longevity: 3 years 1 month

Posts: 47596

Post 02-Dec-2017 15:57

[Quote]

Большая стирка / La grande lessive (!)
Страна: Франция
Жанр: комедия
Год выпуска: 1968
Продолжительность: 01:34:03
Перевод: Профессиональный (многоголосый закадровый) Фильм-экспорт по заказу ТРК Останкино
Субтитры: нет
Оригинальная аудиодорожка: нет
Режиссер: Жан-Пьер Моки / Jean-Pierre Mocky
В ролях: Бурвиль, Франсис Бланш, Роланд Дюбийяр, Жан Тиссье, Микаэль Лонсдаль, Рене-Жан Шоффар, Керин Балм, Аликс Махье, Марсель Перес, Жан-Клод Ремолё, Жан Пуарэ...
Описание: Телемания достигла разрушительных для французского народного образования пределов… Отпрыски парижских обывателей вместе со своими предками по вечерам прикованы к телеящикам, откуда их всячески зомбируют. Убежденный до мозга костей педагог Арман Сен-Жюст не хочет на своих уроках в школе наблюдать подопечных, спящих за партами, и объявляет совместно с физруком Меснаром войну телевидению.
Доп. информация:
Оцифровка VHS с записью эфира телеканала Останкино. Из собственной коллекции.
Здесь, в отличии от: http://erzsebet.org/forum/tracker.php?nm=La%20grande%20lessive%20(!) представлен полный перевод! Желающие убедиться, сравните вторую половину пятой минуты фильма здесь и в раздачах по ссылке.
Сэмпл: http://sendfile.su/1379700
Качество видео: TVRip-AVC
Формат видео: MP4
Видео: AVC, 720х576, 5:4, 25,000 кадров/сек, 3000 Кбит/сек
Аудио: AAC, 64,0 КГц, 192 Кбит/сек, 2.0 (псевдостерео)

MediaInfo

General
Complete name : K:\torrents\La grande lessive (!)\La grande lessive (!).mp4
Format : MPEG-4
Format profile : Base Media
Codec ID : isom (isom/iso2/avc1/mp41)
File size : 2.10 GiB
Duration : 1 h 34 min
Overall bit rate : 3 196 kb/s
Writing application : Lavf57.25.100
Video
ID : 1
Format : AVC
Format/Info : Advanced Video Codec
Format profile : [email protected]
Format settings : 1 Ref Frames
Format settings, CABAC : No
Format settings, RefFrames : 1 frame
Format settings, GOP : M=1, N=50
Codec ID : avc1
Codec ID/Info : Advanced Video Coding
Duration : 1 h 34 min
Bit rate : 3 000 kb/s
Width : 720 pixels
Height : 576 pixels
Display aspect ratio : 5:4
Frame rate mode : Constant
Frame rate : 25.000 FPS
Standard : PAL
Color space : YUV
Chroma subsampling : 4:2:0
Bit depth : 8 bits
Scan type : Progressive
Bits/(Pixel*Frame) : 0.289
Stream size : 1.97 GiB (94%)
Audio
ID : 2
Format : AAC
Format/Info : Advanced Audio Codec
Format profile : LTP
Codec ID : mp4a-40-4
Duration : 1 h 34 min
Bit rate mode : Constant
Bit rate : 192 kb/s
Channel(s) : 2 channels
Channel(s)_Original : 3 channels
Channel positions : Front: L C R
Sampling rate : 64.0 kHz
Frame rate : 62.500 FPS (1024 SPF)
Compression mode : Lossy
Stream size : 127 MiB (6%)
Default : Yes
Alternate group : 1

Скриншот c названием фильма

If your ratio falls below 0.3, you will not be able to download Torrents! More about the rating.

[erzsebet.pl].t68.torrent
Torrent: Registered [ 2017-12-02 15:58 ] · 4D376B4E0D373F67651027A2D0B3A698C7BA13AE

Download .torrent

Download

11 KB

Status: checked
Completed: 16 times
Size: 2.1 GB
terms.php
[Profile] [PM]
Display posts:    
Reply to topic

Current time is: 22-Jan 22:09

All times are UTC ± 0



You cannot post new topics in this forum
You cannot reply to topics in this forum
You cannot edit your posts in this forum
You cannot delete your posts in this forum
You cannot vote in polls in this forum
You cannot attach files in this forum
You can download files in this forum