Рассвет мертвецов / Пробуждение мертвецов / Zombies: Dawn of the Dead / Zombie: Dawn of the Dead (Джордж А. Ромеро / George A. Romero) [1978, Италия, США, Ужасы, DVDRip] AVO (Юрий Живов)

Reply to topic
DL-List and Torrent activity
Size:  1.47 GB   |    Registered:  3 years 1 month   |    Completed:  16 times

Seeder not seen: Never

 
   
 
 
Author Message

erzsebet.org ®

Longevity: 3 years 1 month

Posts: 47596

Post 02-Dec-2017 17:12

[Quote]

Рассвет мертвецов / Пробуждение мертвецов / Zombies: Dawn of the Dead / Zombie: Dawn of the Dead
«In 1968, George Romero brought us 'Night of the Living Dead.' It became the classic horror film of its time. Now, George Romero brings us the most intensely shocking motion picture experience for all time»

Страна: Италия, США
Жанр: Ужасы
Год выпуска: 1978
Продолжительность: 02:07:05
Перевод: Авторский (одноголосый закадровый) Юрий Живов
Субтитры: нет
Режиссер: Джордж А. Ромеро / George A. Romero
В ролях: Дэвид Эмджи, Кен Фори, Скотт Х. Рейнигер, Гэйлен Росс, Дэвид Кроуфорд, Дэвид Ерли, Ричард Франс, Ховард Смит, Дэниэл Дитрих, Фред Бэйкер
Описание: Кошмар зомби, начавшийся в фильме «Ночь живых мертвецов», продолжается. Спасшиеся от ужаса мертвых на вертолете, четверо путешественников вынуждены приземлиться на крышу супермаркета. Там они находят пищу, приют и неприятности. Многоэтажный магазин сверху донизу забит глупыми ходячими трупами.
Развлекая себя отстрелом мертвецов, люди и не подозревают, что всего через несколько часов один из них станет тем, кого они так легко убивают — плотоядным зомби, а чуть позже в магазин нагрянет банда отморозков, не делающая различия между живым и мертвым, единственным желанием которых является жажда наживы и насилия.
Доп. информация: Дорожка с Ю. Живовым синхронизирована и наложена ale_x2008 при помощи Sony Vegas и VirtualDubMod.
За оцифрованную с VHS дорожку благодарим - Raptorio Rio
Релиз
Сэмпл: https://yadi.sk/i/PQa_XKN03PEPMe
Качество видео: DVDRip
Формат видео: AVI
Видео: XviD build 73, 704x384 (1.83:1), 23.976 fps, 1449 kbps avg, 0.22 bit/pixel
Аудио: AC3 Dolby Digital, 48000Hz 2/0 (L,R) ch (mono), 192.00 kbps avg

MediaInfo

Рассвет мертвецов - Dawn of the Dead [by ale_x2008].avi
Format : AVI
Format/Info : Audio Video Interleave
File size : 1.47 GiB
Duration : 2 h 7 min
Overall bit rate : 1 651 kb/s
Movie name : Рассвет мертвецов - Dawn of the Dead [by ale_x2008]
Director : by ale_x2008
Writing application : VirtualDubMod 1.5.10.2 (build 2540/release)
Copyright : Edich2
Comment : erzsebet.org
Video
ID : 0
Format : MPEG-4 Visual
Format profile : Advanced [email protected]
Format settings, BVOP : 2
Format settings, QPel : No
Format settings, GMC : No warppoints
Format settings, Matrix : Custom
Codec ID : XVID
Codec ID/Hint : XviD
Duration : 2 h 7 min
Bit rate : 1 450 kb/s
Width : 704 pixels
Height : 384 pixels
Display aspect ratio : 1.85:1
Frame rate : 23.976 (24000/1001) FPS
Color space : YUV
Chroma subsampling : 4:2:0
Bit depth : 8 bits
Scan type : Progressive
Compression mode : Lossy
Bits/(Pixel*Frame) : 0.224
Stream size : 1.29 GiB (88%)
Writing library : XviD 73
Audio
ID : 1
Format : AC-3
Format/Info : Audio Coding 3
Format settings, Endianness : Big
Codec ID : 2000
Duration : 2 h 7 min
Bit rate mode : Constant
Bit rate : 192 kb/s
Channel(s) : 2 channels
Channel positions : Front: L R
Sampling rate : 48.0 kHz
Frame rate : 31.250 FPS (1536 spf)
Bit depth : 16 bits
Compression mode : Lossy
Stream size : 175 MiB (12%)
Alignment : Split accross interleaves
Interleave, duration : 42 ms (1.00 video frame)
Interleave, preload duratio : 500 ms
Service kind : Complete Main

Скриншоты


If your ratio falls below 0.3, you will not be able to download Torrents! More about the rating.

[erzsebet.pl].t681.torrent
Torrent: Registered [ 2017-12-02 17:13 ] · A77F6F08CE7A6CD045C1BF1412022F1C0F8DFEED

Download .torrent

Download

15 KB

Status: checked
Completed: 16 times
Size: 1.47 GB
terms.php
[Profile] [PM]
Display posts:    
Reply to topic

Current time is: 17-Jan 19:00

All times are UTC ± 0



You cannot post new topics in this forum
You cannot reply to topics in this forum
You cannot edit your posts in this forum
You cannot delete your posts in this forum
You cannot vote in polls in this forum
You cannot attach files in this forum
You can download files in this forum