Нурит / Nurit (Джордж Обадиа / George Obadiah) [1972, Израиль, мелодрама, мюзикл, SATRip] + Sub Rus + Original Heb

Reply to topic
DL-List and Torrent activity
Size:  1.56 GB   |    Registered:  3 years 1 month   |    Completed:  16 times

Seeder not seen: Never

 
   
 
 
Author Message

erzsebet.org ®

Longevity: 3 years 1 month

Posts: 47596

Post 02-Dec-2017 17:12

[Quote]

Нурит / Nurit
Страна: Израиль
Жанр: мелодрама, мюзикл
Год выпуска: 1972
Продолжительность: 01:35:48
Перевод: Субтитры
Субтитры: русские
Оригинальная аудиодорожка: иврит
Режиссер: Джордж Обадиа / George Obadiah
В ролях: Йона Элиан, Саси Кешет, Яаков Бен-Сира, Жак Коэн, Эзра Дегэн, Арье Элиас
Описание: Шошана, дочь богатых родителей, и Моше, водитель грузовика, не могут жить друг без друга. Однако трагическое событие нарушает их планы на жизнь.
Доп. информация: За предоставленную запись спасибо abraka.
Сэмпл: http://multi-up.com/1173900
Качество видео: SATRip
Формат видео: AVI
Видео: Xvid 704x528 25fps 2194kbps
Аудио: MP3 48000Hz stereo 128kbps
Формат субтитров: hardsub (неотключаемые)

MediaInfo

General
Complete name : C:\Downloads\Нурит.avi
Format : AVI
Format/Info : Audio Video Interleave
File size : 1.56 GiB
Duration : 1h 35mn
Overall bit rate : 2 332 Kbps
Writing library : VirtualDub-MPEG2 build 24600/release
Video
ID : 0
Format : MPEG-4 Visual
Format profile : [email protected]
Format settings, BVOP : No
Format settings, QPel : No
Format settings, GMC : No warppoints
Format settings, Matrix : Default (H.263)
Codec ID : XVID
Codec ID/Hint : XviD
Duration : 1h 35mn
Bit rate : 2 194 Kbps
Width : 704 pixels
Height : 528 pixels
Display aspect ratio : 4:3
Frame rate : 25.000 fps
Color space : YUV
Chroma subsampling : 4:2:0
Bit depth : 8 bits
Scan type : Progressive
Compression mode : Lossy
Bits/(Pixel*Frame) : 0.236
Stream size : 1.47 GiB (94%)
Writing library : XviD 67
Audio
ID : 1
Format : MPEG Audio
Format version : Version 1
Format profile : Layer 3
Mode : Joint stereo
Mode extension : MS Stereo
Codec ID : 55
Codec ID/Hint : MP3
Duration : 1h 35mn
Bit rate mode : Constant
Bit rate : 128 Kbps
Channel(s) : 2 channels
Sampling rate : 48.0 KHz
Compression mode : Lossy
Stream size : 87.7 MiB (5%)
Alignment : Split accross interleaves
Interleave, duration : 40 ms (1.00 video frame)
Interleave, preload duration : 500 ms

Скриншоты






If your ratio falls below 0.3, you will not be able to download Torrents! More about the rating.

[erzsebet.pl].t683.torrent
Torrent: Registered [ 2017-12-02 17:13 ] · 7A5A6BC8CC70B34F3C26774D32D3E7FC4E0135F1

Download .torrent

Download

16 KB

Status: checked
Completed: 16 times
Size: 1.56 GB
terms.php
[Profile] [PM]
Display posts:    
Reply to topic

Current time is: 23-Jan 10:01

All times are UTC ± 0



You cannot post new topics in this forum
You cannot reply to topics in this forum
You cannot edit your posts in this forum
You cannot delete your posts in this forum
You cannot vote in polls in this forum
You cannot attach files in this forum
You can download files in this forum