Отчаянный / Desperado (Роберт Родригес / Robert Rodriguez) [1995, США, боевик, триллер, драма, HDRip] AVO (Сергей Визгунов - #2) + VO (Евгений Бойков)

Reply to topic
DL-List and Torrent activity
Size:  1.46 GB   |    Registered:  3 years 1 month   |    Completed:  16 times

Seeder not seen: Never

 
   
 
 
Author Message

erzsebet.org ®

Longevity: 3 years 1 month

Posts: 47596

Post 02-Dec-2017 17:17

[Quote]

Отчаянный / Desperado
«The explosive new film from Robert Rodriguez»
Страна: США
Жанр: боевик, триллер, драма
Год выпуска: 1995
Продолжительность: 01:44:30
Перевод: Авторский (одноголосый закадровый) Сергей Визгунов (другой вариант перевода)
Перевод 2: Одноголосый закадровый Евгений Бойков
Субтитры: нет
Режиссер: Роберт Родригес / Robert Rodriguez
В ролях: Антонио Бандерас, Сальма Хайек, Хоаким де Альмейда, Чич Марин, Стив Бушеми, Карлос Гомез, Квентин Тарантино, Тито Ларрива, Энджел Авилес, Дэнни Трехо
Описание: Сценарист, монтажер и режиссер Роберт Родригес выдал второй "фильмец" (первым был прославивший его "Эль Мариаки", обошедшийся три года назад в 7000 долларов), о котором так просто и не напишешь. Чем-то он напоминает и Джанго с пулеметом в гробу, и кроваво-брызжущее изящество Тарантино (он кстати появляется в эпизоде, получая пулю в лоб в грязном сортире), и спагетти-вестрны Серджо Леоне, и незабвенного Клинта Иствуда, и даже наши "Маски-шоу". Но все это, взятое вместе, ни в коем случае не даст полного представления о том, что вы увидете, а картину язык не повернется назвать вторичной. Сюжет более, чем прост: в небольшом мексиканском городке гитарист мстит местному королю наркомафии за убийство любимой девушки и простреленную левую руку. Но сделана эта пародия с такой ювелирной точностью, что дикое удовольствие получаешь и как от боевика, и как от комедии. Отчаянный фильм, гениальный фильм. Музыка ансамбля Лос Лобос (Los Lobos). (Иванов М.)
Доп. информация: Дорожка с С. Визгуновым синхронизирована и наложена ale_x2008 при помощи Sony Vegas и VirtualDubMod.
За оцифрованную с VHS дорожку благодарим - 21Sepsis
За дорогу (с VHS) Бойкова спасибо DeASS.
Релиз
Сэмпл: https://yadi.sk/i/872KuooO3Pj6Qf
Качество видео: HDRip
Формат видео: AVI
Видео: 688x368 (1.87:1), 23.976 fps, XviD build 50 ~1605 kbps avg, 0.26 bit/pixel
Аудио: AC3 Dolby Digital, 48000Hz 2/0 (L,R) ch (mono), 192.00 kbps avg
Аудио 2: 48 kHz, AC3 Dolby Digital, 2/0 (L,R) ch, ~192 kbps

MediaInfo

Отчаянный - Desperado [by Edich2].avi
Format : AVI
Format/Info : Audio Video Interleave
File size : 1.32 GiB
Duration : 1 h 44 min
Overall bit rate : 1 807 kb/s
Movie name : Отчаянный - Desperado [by ale_x2008]
Director : by Edich2
Writing application : VirtualDubMod 1.5.10.2 (build 2540/release)
Comment : erzsebet.org
Video
ID : 0
Format : MPEG-4 Visual
Format profile : Advanced [email protected]
Format settings, BVOP : 1
Format settings, QPel : No
Format settings, GMC : No warppoints
Format settings, Matrix : Custom
Codec ID : XVID
Codec ID/Hint : XviD
Duration : 1 h 44 min
Bit rate : 1 605 kb/s
Width : 688 pixels
Height : 368 pixels
Display aspect ratio : 1.85:1
Frame rate : 23.976 (23976/1000) FPS
Color space : YUV
Chroma subsampling : 4:2:0
Bit depth : 8 bits
Scan type : Progressive
Compression mode : Lossy
Bits/(Pixel*Frame) : 0.264
Stream size : 1.17 GiB (89%)
Writing library : XviD 1.2.1 (UTC 2008-12-04)
Audio
ID : 1
Format : AC-3
Format/Info : Audio Coding 3
Mode extension : CM (complete main)
Format settings, Endianness : Big
Codec ID : 2000
Duration : 1 h 44 min
Bit rate mode : Constant
Bit rate : 192 kb/s
Channel(s) : 2 channels
Channel positions : Front: L R
Sampling rate : 48.0 kHz
Frame rate : 31.250 FPS (1536 spf)
Compression mode : Lossy
Stream size : 144 MiB (11%)
Alignment : Split accross interleaves
Interleave, duration : 42 ms (1.00 video frame)
Interleave, preload duratio : 500 ms
Audio
ID : 2
Format : AC-3
Format/Info : Audio Coding 3
Mode extension : CM (complete main)
Format settings, Endianness : Big
Codec ID : 2000
Duration : 1 h 44 min
Bit rate mode : Constant
Bit rate : 192 kb/s
Channel(s) : 2 channels
Channel positions : Front: L R
Sampling rate : 48.0 kHz
Frame rate : 31.250 FPS (1536 spf)
Compression mode : Lossy
Stream size : 144 MiB (11%)
Alignment : Split accross interleaves
Interleave, duration : 42 ms (1.00 video frame)
Interleave, preload duratio : 500 ms

Скриншоты


If your ratio falls below 0.3, you will not be able to download Torrents! More about the rating.

[erzsebet.pl].t684.torrent
Torrent: Registered [ 2017-12-02 17:17 ] · 490C867D74EA11D86FB9D1574B8B7201CFAD2A1C

Download .torrent

Download

15 KB

Status: checked
Completed: 16 times
Size: 1.46 GB
terms.php
[Profile] [PM]
Display posts:    
Reply to topic

Current time is: 18-Jan 23:50

All times are UTC ± 0



You cannot post new topics in this forum
You cannot reply to topics in this forum
You cannot edit your posts in this forum
You cannot delete your posts in this forum
You cannot vote in polls in this forum
You cannot attach files in this forum
You can download files in this forum