Полицейская академия 7: Миссия в Москве / Police Academy: Mission to Moscow (Алан Меттер / Alan Metter) [1994, США, Комедия, VHSRip] [Promo copy] AVO (Гаврилов Андрей)

Reply to topic
DL-List and Torrent activity
Size:  4.73 GB   |    Registered:  3 years 1 month   |    Completed:  16 times

Seeder not seen: Never

 
   
 
 
Author Message

erzsebet.org ®

Longevity: 3 years 1 month

Posts: 47596

Post 02-Dec-2017 17:17

[Quote]

Полицейская академия 7: Миссия в Москве / Police Academy: Mission to Moscow / Promo copy
Страна: США
Жанр: Комедия
Год выпуска: 1994
Продолжительность: 01:19:20
Перевод: Авторский (одноголосый закадровый) Гаврилов Андрей
Субтитры: нет
Оригинальная аудиодорожка: нет
Режиссер: Алан Меттер / Alan Metter
В ролях: Джордж Гэйнс /George Gaynes/, Майкл Уинслоу /Michael Winslow/, Дэвид Грэф /David Graf/, Лесли Истербрук /Leslie Easterbrook/, Клэр Форлани /Claire Forlani/, Грегг Бергер, Рон Перлмэн /Ron Perlman/, Кристофер Ли /Christopher Lee/, Чарли Шлэттер /Charlie Schlatter/, Дж. У. Бэйли /G. W. Bailey/
Описание: Что делает десант "полицейской Академии" во главе с самим комендантом Лассардом в Москве? Ловит преступников. Советских. Мафиозного босса Константина Каналью, распространившего по всему миру компьютерную игру "The game", которая за месяц принесла ему полтора миллиарда долларов. На него работает компьютерный гений, который в новый вариант игры вставил программу, позволяющую Косте влезть в любой компьютер мира, будь то банк или биржа. И теперь Костя спит и видит себя владельцем Красной площади, Кремля и Мавзолея В.И.Ленина. Надо остановить Костю, пока он не расширил круг своих аппетитов на весь остальной мир...
Доп. информация: Оцифровка пиратской VHS из коллекции RoxMarty.
Promo copy!
Сэмпл: http://sendfile.su/1377366
Качество видео: VHSRip
Формат видео: MPG
Видео: 720х576, 4:3, 25,000 кадров/сек, 8300 Кбит/сек
Аудио: AС-3, 48,0 КГц, 384 Кбит/сек, 2.0

MediaInfo

Format : MPEG-PS
File size : 4.73 GiB
Duration : 1h 19mn
Overall bit rate mode : Variable
Overall bit rate : 8 531 Kbps
Writing library : (dvd5: Oct 27 2015)
Video #224
ID : 224 (0xE0)
Format : MPEG Video
Format version : Version 2
Format profile : [email protected]
Format settings, BVOP : Yes
Format settings, Matrix : Custom
Duration : 1h 19mn
Bit rate mode : Variable
Bit rate : 7 977 Kbps
Maximum bit rate : 8 300 Kbps
Width : 720 pixels
Height : 576 pixels
Display aspect ratio : 4:3
Frame rate : 25.000 fps
Standard : PAL
Color space : YUV
Chroma subsampling : 4:2:0
Bit depth : 8 bits
Scan type : Interlaced
Scan order : Top Field First
Compression mode : Lossy
Bits/(Pixel*Frame) : 0.769
Stream size : 4.42 GiB (94%)
Writing library : (dvd5: Oct 27 2015)
Audio #189-128
ID : 189 (0xBD)-128 (0x80)
Format : AC-3
Format/Info : Audio Coding 3
Mode extension : CM (complete main)
Format settings, Endianness : Big
Muxing mode : DVD-Video
Duration : 1h 19mn
Bit rate mode : Constant
Bit rate : 384 Kbps
Channel(s) : 2 channels
Channel positions : Front: L R
Sampling rate : 48.0 KHz
Bit depth : 16 bits
Compression mode : Lossy
Delay relative to video : -80ms
Stream size : 218 MiB (5%)
Menu

Скриншот c названием фильма

Скриншоты

If your ratio falls below 0.3, you will not be able to download Torrents! More about the rating.

[erzsebet.pl].t692.torrent
Torrent: Registered [ 2017-12-02 17:17 ] · 6240B0760E9CC6499F358EFF2A690CCD7F1D9246

Download .torrent

Download

12 KB

Status: checked
Completed: 16 times
Size: 4.73 GB
terms.php
[Profile] [PM]
Display posts:    
Reply to topic

Current time is: 17-Jan 19:22

All times are UTC ± 0



You cannot post new topics in this forum
You cannot reply to topics in this forum
You cannot edit your posts in this forum
You cannot delete your posts in this forum
You cannot vote in polls in this forum
You cannot attach files in this forum
You can download files in this forum