Чернокнижник: Невеста дьявола / Geisterjäger John Sinclair: Die Dämonenhochzeit / John Sinclar Brides of the Devil (Клаус Кнёсель / Klaus Knoesel) [1997, Германия, ужасы, детектив, DVDRip] DVO (Екатеринбург Арт)

Reply to topic
DL-List and Torrent activity
Size:  1.37 GB   |    Registered:  3 years 1 month   |    Completed:  16 times

Seeder not seen: Never

 
   
 
 
Author Message

erzsebet.org ®

Longevity: 3 years 1 month

Posts: 47596

Post 02-Dec-2017 17:17

[Quote]

Чернокнижник: Невеста дьявола / Geisterjäger John Sinclair: Die Dämonenhochzeit / John Sinclar Brides of the Devil-Князь тьмы снова восстал из преисподней для новой решающей битвы, от исхода которой зависит судьба всего человечества.
Мистическая фантастика о новом пришествии самого могущественного демона сил тьмы.
- Год выпуска: 1997
Страна: Германия
Жанр: ужасы, детектив
Продолжительность: 01:32:48
Перевод: Профессиональный (двухголосый закадровый) - Екатеринбург Арт
Субтитры: нет
Режиссер: Клаус Кнёсель / Klaus Knoesel
В ролях: Флориан Фиц / John Sinclair, Йофи Рис / Bill Conelly, Петер Фиц / Pater Ignatius, Табеа Тислер / Kerstin Müller, Констанз Пребстер / Marion Baumann, Тьерри Ван Вервеке / Viktor Gonsoir, Уц Краузе / Willi Mallmann-Мировая премьера: 13 апреля 1997-Описание: В 1197 году в городе Кельне должна была пройти свадебная церемония Князя Тьмы и его избранницы. Но невесту и трех ее подруг сожгли на костре в замке Робентайн как ведьм. С тех пор на замке лежало проклятие. Но через 800 лет на пороге 21 - го века магические силы старинного кольца вновь пробудили силы Зла. Самый могущественный демон Ада вернулся для новой, решающей битвы. Четыре студентки, забредшие в руины замка, превращены в живых покойниц. Одна из них должна стать Невестой Дьявола, а остальные ее подружками. В самом красивом соборе Кельна с наступлением полуночи состоится дьявольская свадьба, которая положит начало вечному Царству Тьмы, если силы Света не смогут низвергнуть Князя Тьмы обратно в Преисподнюю. Спасти девушек и все человечество от страшной участи может только специалист по оккультным наукам и охотник на ведьм Джон Синклер...-Огромная благодарность:
*Jonathan* - видеоряд
ochkarik1 - личная оцифровка звука со своей лицензионной видеокассеты от видеокомпании "Екатеринбург Арт".
JUSTKANT - синхронизация перевода.-На русский язык фильм озвучен студией "Ракурс" по заказу компании Екатеринбург Арт.
Текст читают Александр Рахленко и Нина Тобилевич.-
Рейтинг

MPAA: R - Лицам до 17 лет обязательно присутствие взрослого.-Качество видео: DVDRip
Формат видео: AVI -> //Сэмпл//
Видео: XviD, 640x480 (4:3), 25.000 fps, 1907 kbps
Аудио:
1 - 48 khz, AC3 Dolby Digital, 2/0 (L,R) ch, ~192 kbps [Екатеринбург Арт] VHSRip

Информация о переводе

В данной раздаче звук немного лучшего качества, чем у такого же перевода на трекере.
Сравнение звука в сэмпле: 1-й звук - из трекера, 2-й - из моей раздачи!

MediaInfo

General
Complete name : D:\Чернокнижник. Невеста дьявола (Екатеринбург Арт).avi
Format : AVI
Format/Info : Audio Video Interleave
File size : 1.37 GiB
Duration : 1 h 32 min
Overall bit rate : 2 109 kb/s
Movie name : Чернокнижник: Невеста дьявола / Geisterjager John Sinclair: Die Damonenhochzeit / John Sinclar Brides of the Devil (Екатеринбург Арт)
Director : JUSTKANT
Writing application : VirtualDubMod 1.5.10.3 (build 2550/release)
Copyright : На русский язык фильм озвучен студией "Ракурс" по заказу компании Екатеринбург Арт
Comment : Качество звука: VHSRip (ochkarik1)
Video
ID : 0
Format : MPEG-4 Visual
Format profile : Advanced [email protected]
Format settings, BVOP : 1
Format settings, QPel : No
Format settings, GMC : No warppoints
Format settings, Matrix : Default (H.263)
Codec ID : XVID
Codec ID/Hint : XviD
Duration : 1 h 32 min
Bit rate : 1 907 kb/s
Width : 640 pixels
Height : 480 pixels
Display aspect ratio : 4:3
Frame rate : 25.000 FPS
Color space : YUV
Chroma subsampling : 4:2:0
Bit depth : 8 bits
Scan type : Progressive
Compression mode : Lossy
Bits/(Pixel*Frame) : 0.248
Stream size : 1.24 GiB (90%)
Writing library : XviD 1.2.1 (UTC 2008-12-04)
Audio
ID : 1
Format : AC-3
Format/Info : Audio Coding 3
Format settings, Endianness : Big
Codec ID : 2000
Duration : 1 h 32 min
Bit rate mode : Constant
Bit rate : 192 kb/s
Channel(s) : 2 channels
Channel positions : Front: L R
Sampling rate : 48.0 kHz
Frame rate : 31.250 FPS (1536 SPF)
Bit depth : 16 bits
Compression mode : Lossy
Stream size : 127 MiB (9%)
Alignment : Split accross interleaves
Interleave, duration : 40 ms (1.00 video frame)
Interleave, preload duratio : 500 ms
Title : Екатеринбург Арт: Александр Рахленко и Нина Тобилевич
Service kind : Complete Main

Скриншот c названием фильма

Скриншоты

If your ratio falls below 0.3, you will not be able to download Torrents! More about the rating.

[erzsebet.pl].t694.torrent
Torrent: Registered [ 2017-12-02 17:17 ] · DF76A5EF52A55CB01B8A17D78D396EB83D3B2159

Download .torrent

Download

14 KB

Status: checked
Completed: 16 times
Size: 1.37 GB
terms.php
[Profile] [PM]
Display posts:    
Reply to topic

Current time is: 17-Jan 02:35

All times are UTC ± 0



You cannot post new topics in this forum
You cannot reply to topics in this forum
You cannot edit your posts in this forum
You cannot delete your posts in this forum
You cannot vote in polls in this forum
You cannot attach files in this forum
You can download files in this forum