Кинобезумие / National Lampoon's Movie Madness (Боб Джиральди / Bob Giraldi, Генри Джеглом / Henry Jaglom) [1982, США, комедия, DVDRip-AVC] DVO (НТВ+) + Sub Eng + Original Eng

Reply to topic
DL-List and Torrent activity
Size:  1.31 GB   |    Registered:  3 years 1 month   |    Completed:  16 times

Seeder not seen: Never

 
   
 
 
Author Message

erzsebet.org ®

Longevity: 3 years 1 month

Posts: 47596

Post 02-Dec-2017 17:12

[Quote]

Кинобезумие / National Lampoon's Movie Madness
Страна: США
Жанр: комедия
Год выпуска: 1982
Продолжительность: 01:29:18
Перевод: Профессиональный (двухголосый закадровый) НТВ+
Субтитры: английские
Оригинальная аудиодорожка: английский
Режиссер: Боб Джиральди / Bob Giraldi, Генри Джеглом / Henry Jaglom
В ролях: Питер Ригерт, Дайан Лэйн, Кэнди Кларк, Тереза Ганзел, Энди Сакман, Тамар Ховард, Йен Фрид, Барри Мичлин, Тринидад Сильва...
Описание: Фильм состоящий из трёх короткометражек. В основе пародии на различные фильмовые жанры: мыльные оперы, полицейские истории, фильмы о карьерном росте.
Доп. информация: Звук с SATRip. Синхронизация звука - Dreven.
Сэмпл: http://sendfile.su/1372562
Качество видео: DVDRip-AVC
Формат видео: MKV
Видео: 710x464 (16:9) @ 842x464, 23.976 fps, AVC, ~1675 Kbps, 0.212 bits/pixel
Аудио 1: Russian, 48.0 KHz, AC3, 2 ch, 192 Kbps - НТВ+
Аудио 2: English, 48.0 KHz, AC3, 2 ch, 192 Kbps

Сравнение

http://erzsebet.org/forum/viewtopic.php?t=1692843
SATRip не пригоден к просмотру, из-за нарастающего рассинхрона звука.
http://screenshotcomparison.com/comparison/121876/picture:0

MediaInfo

General
Unique ID : 183921081128344000822425614047776675405 (0x8A5DE968C526B0628144BAE0C43D164D)
Complete name : C:\Movie Madness.mkv
Format : Matroska
Format version : Version 4 / Version 2
File size : 1.31 GiB
Duration : 1 h 29 min
Overall bit rate : 2 101 kb/s
Encoded date : UTC 2017-10-26 16:43:59
Writing application : mkvmerge v17.0.0 ('Be Ur Friend') 64-bit
Writing library : libebml v1.3.5 + libmatroska v1.4.8
Video
ID : 1
Format : AVC
Format/Info : Advanced Video Codec
Format profile : [email protected]
Format settings, CABAC : Yes
Format settings, RefFrames : 9 frames
Codec ID : V_MPEG4/ISO/AVC
Duration : 1 h 29 min
Bit rate : 1 715 kb/s
Width : 710 pixels
Height : 464 pixels
Display aspect ratio : 16:9
Original display aspect rat : 16:9
Frame rate mode : Constant
Frame rate : 23.976 (24000/1001) FPS
Color space : YUV
Chroma subsampling : 4:2:0
Bit depth : 8 bits
Scan type : Progressive
Bits/(Pixel*Frame) : 0.217
Stream size : 1.07 GiB (82%)
Writing library : x264 core 142 r2479 dd79a61
Encoding settings : cabac=1 / ref=9 / deblock=1:-2:-2 / analyse=0x3:0x133 / me=umh / subme=9 / psy=1 / psy_rd=1.00:0.00 / mixed_ref=1 / me_range=24 / chroma_me=1 / trellis=2 / 8x8dct=1 / cqm=0 / deadzone=21,11 / fast_pskip=0 / chroma_qp_offset=-2 / threads=6 / lookahead_threads=1 / sliced_threads=0 / nr=0 / decimate=1 / interlaced=0 / bluray_compat=0 / constrained_intra=0 / bframes=6 / b_pyramid=2 / b_adapt=2 / b_bias=0 / direct=3 / weightb=1 / open_gop=0 / weightp=2 / keyint=240 / keyint_min=24 / scenecut=40 / intra_refresh=0 / rc_lookahead=50 / rc=crf / mbtree=0 / crf=16.8 / qcomp=0.60 / qpmin=0 / qpmax=69 / qpstep=4 / vbv_maxrate=62500 / vbv_bufsize=78125 / crf_max=0.0 / nal_hrd=none / filler=0 / ip_ratio=1.40 / pb_ratio=1.30 / aq=1:1.00
Language : English
Default : Yes
Forced : No
Color range : Limited
Color primaries : BT.601 NTSC
Transfer characteristics : BT.709
Matrix coefficients : BT.601
Audio #1
ID : 2
Format : AC-3
Format/Info : Audio Coding 3
Format settings, Endianness : Big
Codec ID : A_AC3
Duration : 1 h 29 min
Bit rate mode : Constant
Bit rate : 192 kb/s
Channel(s) : 2 channels
Channel positions : Front: L R
Sampling rate : 48.0 kHz
Frame rate : 31.250 FPS (1536 SPF)
Bit depth : 16 bits
Compression mode : Lossy
Stream size : 123 MiB (9%)
Title : НТВ+
Language : Russian
Service kind : Complete Main
Default : Yes
Forced : No
Audio #2
ID : 3
Format : AC-3
Format/Info : Audio Coding 3
Format settings, Endianness : Big
Codec ID : A_AC3
Duration : 1 h 29 min
Bit rate mode : Constant
Bit rate : 192 kb/s
Channel(s) : 2 channels
Channel positions : Front: L R
Sampling rate : 48.0 kHz
Frame rate : 31.250 FPS (1536 SPF)
Bit depth : 16 bits
Compression mode : Lossy
Stream size : 123 MiB (9%)
Language : English
Service kind : Complete Main
Default : No
Forced : No
Text
ID : 4
Format : UTF-8
Codec ID : S_TEXT/UTF8
Codec ID/Info : UTF-8 Plain Text
Duration : 1 h 21 min
Bit rate : 66 b/s
Count of elements : 1021
Stream size : 39.5 KiB (0%)
Language : English
Default : No
Forced : No
Menu
00:00:00.000 : :Chapter 1
00:02:48.334 : :Chapter 2
00:05:43.843 : :Chapter 3
00:14:05.511 : :Chapter 4
00:21:45.304 : :Chapter 5
00:26:33.091 : :Chapter 6
00:30:16.815 : :Chapter 7
00:38:08.786 : :Chapter 8
00:42:27.044 : :Chapter 9
00:49:57.661 : :Chapter 10
00:57:11.344 : :Chapter 11
00:58:54.614 : :Chapter 12
01:09:07.852 : :Chapter 13
01:14:03.647 : :Chapter 14
01:22:57.013 : :Chapter 15
01:26:43.573 : :Chapter 16

Скриншоты

If your ratio falls below 0.3, you will not be able to download Torrents! More about the rating.

[erzsebet.pl].t695.torrent
Torrent: Registered [ 2017-12-02 17:13 ] · A15840F9053DDBF9A144B33F95B14BEF1BCFD252

Download .torrent

Download

14 KB

Status: checked
Completed: 16 times
Size: 1.31 GB
terms.php
[Profile] [PM]
Display posts:    
Reply to topic

Current time is: 28-Jan 07:27

All times are UTC ± 0



You cannot post new topics in this forum
You cannot reply to topics in this forum
You cannot edit your posts in this forum
You cannot delete your posts in this forum
You cannot vote in polls in this forum
You cannot attach files in this forum
You can download files in this forum